Любите Куперов / Love the Coopers (2015) WEBRip [Line]

Киноновинки, новинки кинопроката, горячие новинки

Модератор: Модераторы видео

  • Статистика раздачи
Размер: 1.46 ГБ   |  Зарегистрирован: 25 янв 2016, 19:11   |   .torrent скачан: 33 раз
Сидеров: 829  [ 0 байт/сек ]     Личеров: 10  [ 0 байт/сек ]  
Список файлов : Кто скачал : Раздают : Скачивают : Кто благодарил : История : Не раздающие : Запрашивали сидеров : Внешние трекеры 
  

Любите Куперов / Love the Coopers (2015) WEBRip [Line]

Сообщение Админ » 25 янв 2016, 19:11

Любите Куперов / Love the Coopers (2015) WEBRip

Производство: США, CBS Films, Groundswell Productions, Imagine Entertainment
Жанр: Комедия

Режиссер: Джесси Нельсон
Продюсеры: Брайан Грейзер, Майкл Лондон, Джесси Нельсон
Актеры: Дайан Китон, Джон Гудман, Эд Хелмс, Алекс Борштейн, Тимоти Чаламет, Максвелл Симкинс, Блейк Баумгартнер, Аманда Сайфред, Алан Аркин, Дэн Амбойер

Описание:
Феерическая рождественская Комедия о том, что бывает, когда на праздник собираются представители четырех поколений одной большой семьи…



Рейтинг MPAA: PG-13
Возраст: 16+

Дата мировой премьеры: 4 ноября 2015
Дата премьеры в России: 10 декабря 2015, «Парадиз»

Продолжительность: 01:42:18
Качество видео: WEBRip
Перевод: Дублированный (Чистый звук)
Субтитры: Отсутствуют

Видео: XviD, 720x304, 1839 kbps
Аудио: 48 kHz, AC3 Dolby Digital, 2/0 (L,R) ch, ~192 kbps
Семпл: Скачать
Код: Выделить всё
Общее
Полное имя                               : D:\Релизы\Любите.Куперов.2015.WEBRip.nnm-club.avi
Формат                                   : AVI
Формат/Информация                        : Audio Video Interleave
Размер файла                             : 1,46 Гбайт
Продолжительность                        : 1 ч. 42 м.
Общий поток                              : 2041 Кбит/сек
Программа кодирования                    : VirtualDubMod 1.5.10.3 | (build 2550/release)
Библиотека кодирования                   : VirtualDubMod build 2550/release

Видео
Идентификатор                            : 0
Формат                                   : MPEG-4 Visual
Профиль формата                          : Advanced Simple@L5
Параметр BVOP формата                    : 2
Параметр QPel формата                    : Нет
Параметр GMC формата                     : Без точки перехода
Параметр матрицы формата                 : Default (MPEG)
Идентификатор кодека                     : XVID
Идентификатор кодека/Подсказка           : XviD
Продолжительность                        : 1 ч. 42 м.
Битрейт                                  : 1839 Кбит/сек
Ширина                                   : 720 пикселей
Высота                                   : 304 пикселя
Соотношение сторон                       : 2,35:1
Частота кадров                           : 24,000 кадра/сек
Цветовое пространство                    : YUV
Субдискретизация насыщенности            : 4:2:0
Битовая глубина                          : 8 бит
Тип развёртки                            : Прогрессивная
Метод сжатия                             : С потерями
Бит/(Пиксели*Кадры)                      : 0.350
Размер потока                            : 1,31 Гбайт (90%)
Библиотека кодирования                   : XviD 1.2.1 (UTC 2008-12-04)

Аудио
Идентификатор                            : 1
Формат                                   : AC-3
Формат/Информация                        : Audio Coding 3
Расширение режима                        : CM (complete main)
Параметр Endianness формата              : Big
Идентификатор кодека                     : 2000
Продолжительность                        : 1 ч. 42 м.
Вид битрейта                             : Постоянный
Битрейт                                  : 192 Кбит/сек
Каналы                                   : 2 канала
Расположение каналов                     : Front: L R
Частота                                  : 48,0 КГц
Метод сжатия                             : С потерями
Размер потока                            : 141 Мбайт (9%)
Выравнивание                             : Разделение по промежуткам
Продолжительность промежутка             : 42  мс. (1,00 видеокадр)
Время предзагрузки промежутка            : 500  мс.

Скриншоты:

Время раздачи: 24/7, до 5 скачавших.
   
Торрент: Зарегистрирован [25 янв 2016, 19:11] Скачать торрент
Скачать торрент
О MediaGet
[ Размер 15.31 КБ / Просмотров 177 ]

Статус:
 
Приватный: Нет (DHT включён)
Размер: 1.46 ГБ (1 565 974 528 байт)
   
Аватара пользователя

Администратор
Администратор
 
Раздал: 2.3 ПБ
Скачал: 1.01 ПБ
Ратио: 2.270
Сообщения: 2997
Зарегистрирован: 07 май 2010, 17:29
Medals: 1
Лучший релиз за месяц (1)
  • Личное сообщение
  • ICQ

  • Похожие торренты
    Ответы
    Просмотры
    Последнее сообщение

Вернуться в Фильмы 2016 (новинки)

Кто сейчас на конференции

Зарегистрированные пользователи: Dom_777, kilinbel, leomartin, Nolimit, sergej-asd

Ресурс не предоставляет электронные версии произведений, а занимается лишь коллекционированием и каталогизацией ссылок, присылаемых и публикуемых на форуме нашими читателями. Если вы являетесь правообладателем какого-либо представленного материала и не желаете чтобы ссылка на него находилась в нашем каталоге, свяжитесь с нами и мы незамедлительно удалим её. Файлы для обмена на трекере предоставлены пользователями сайта, и администрация не несёт ответственности за их содержание. Просьба не заливать файлы, защищенные авторскими правами, а также файлы нелегального содержания!
cron