Западная религия / Western Religion (2015) WEB-DLRip

Киноновинки, новинки кинопроката, горячие новинки

Модератор: Модераторы видео

  • Статистика раздачи
Размер: 1.52 ГБ   |  Зарегистрирован: 25 янв 2016, 01:56   |   .torrent скачан: 3 раз
Сидеров: 53  [ 0 байт/сек ]     Личеров: 2  [ 0 байт/сек ]  
Список файлов : Кто скачал : Раздают : Скачивают : Кто благодарил : История : Не раздающие : Запрашивали сидеров : Внешние трекеры 
  

Западная религия / Western Religion (2015) WEB-DLRip

Сообщение Админ » 25 янв 2016, 01:56

Западная религия / Western Religion (2015) WEB-DLRip

Производство: США
Жанр: Вестерн

Режиссер: Джеймс О’Брайэн
Продюсер: Джеймс О’Брайэн, Луи Сабатассо, Лиза Астахова
Актеры: Питер Шинкода, Майлз Санто, Мерик Тадрос, Холлидей Хэдли, Вивиан Ламолли, Питер Шерайко, Джонатан Айли, Ардешир Радпур, Стиг Элдред, Ясмин Канли

Описание:
Дикий Запад, 1879 год. Со всех штатов приезжают азартные игроки в маленький шахтёрский городок в штате Аризона. Здесь можно отыскать и новичков и настоящих профи игры в покер. Все приезжают только с одной целью, выиграть местный турник по покеру и сорвать банк. У каждого приезжего своя религия, взгляды на жизнь, свой нелёгкий жизненный путь, но объединяет их одно - покер. Ради больших денег, большинство готово пойти на всё от мелкого жульничества до убийства человека. Так победит сильнейший...


Дата мировой премьеры: 16 мая 2015

Продолжительность: 01:45:10
Качество видео: WEB-DLRip
Перевод: Двуголосый закадровый, любительский (Parovoz Production)
Реклама: Отсутствует

Видео: Xvid, 720x304, ~1485 Кбит/с
Аудио 1 : AC3, 2 ch, 192 Кбит/с - Русский, CBR
Аудио 2 : AC3, 6 ch, 384 Кбит/с - Английский, CBR
Код:
Код: Выделить всё
Общее
Полное имя                               : D:\FILMЬl\BPPO\Western Religion (2015)\Zapadnaja.Religija.RU.EN.avi
Формат                                   : AVI
Формат/Информация                        : Audio Video Interleave
Размер файла                             : 1,52 Гбайт
Продолжительность                        : 1 ч. 45 м.
Общий поток                              : 2075 Кбит/сек
Программа кодирования                    : VirtualDubMod 1.5.10.2 (build 2542/release)
Библиотека кодирования                   : VirtualDubMod build 2542/release

Видео
Идентификатор                            : 0
Формат                                   : MPEG-4 Visual
Профиль формата                          : Advanced Simple@L5
Параметр BVOP формата                    : 2
Параметр QPel формата                    : Нет
Параметр GMC формата                     : Без точки перехода
Параметр матрицы формата                 : Default (H.263)
Режим смешивания                         : Сжатый битовый поток
Идентификатор кодека                     : XVID
Идентификатор кодека/Подсказка           : XviD
Продолжительность                        : 1 ч. 45 м.
Битрейт                                  : 1485 Кбит/сек
Ширина                                   : 720 пикселей
Высота                                   : 304 пикселя
Соотношение сторон                       : 2,35:1
Частота кадров                           : 23,976 кадра/сек
Цветовое пространство                    : YUV
Субдискретизация насыщенности            : 4:2:0
Битовая глубина                          : 8 бит
Тип развёртки                            : Прогрессивная
Метод сжатия                             : С потерями
Бит/(Пиксели*Кадры)                      : 0.283
Размер потока                            : 1,09 Гбайт (72%)
Библиотека кодирования                   : XviD 66

Аудио #1
Идентификатор                            : 1
Формат                                   : AC-3
Формат/Информация                        : Audio Coding 3
Расширение режима                        : CM (complete main)
Параметр Endianness формата              : Big
Идентификатор кодека                     : 2000
Продолжительность                        : 1 ч. 45 м.
Вид битрейта                             : Постоянный
Битрейт                                  : 192 Кбит/сек
Каналы                                   : 2 канала
Расположение каналов                     : Front: L R
Частота                                  : 48,0 КГц
Метод сжатия                             : С потерями
Размер потока                            : 144 Мбайт (9%)
Выравнивание                             : Разделение по промежуткам
Продолжительность промежутка             : 42  мс. (1,00 видеокадр)
Время предзагрузки промежутка            : 500  мс.

Аудио #2
Идентификатор                            : 2
Формат                                   : AC-3
Формат/Информация                        : Audio Coding 3
Расширение режима                        : CM (complete main)
Параметр Endianness формата              : Big
Идентификатор кодека                     : 2000
Продолжительность                        : 1 ч. 45 м.
Вид битрейта                             : Постоянный
Битрейт                                  : 384 Кбит/сек
Каналы                                   : 6 каналов
Расположение каналов                     : Front: L C R, Side: L R, LFE
Частота                                  : 48,0 КГц
Метод сжатия                             : С потерями
Размер потока                            : 289 Мбайт (19%)
Выравнивание                             : Соединение по промежуткам
Продолжительность промежутка             : 42  мс. (1,00 видеокадр)
Время предзагрузки промежутка            : 512  мс.

Скриншоты:



Время раздачи: С 09:00 до 23:30 до 5 скачавших
   
Торрент: Зарегистрирован [25 янв 2016, 01:56] Скачать торрент
Скачать торрент
О MediaGet
[ Размер 16.05 КБ / Просмотров 70 ]

Статус:
 
Приватный: Нет (DHT включён)
Размер: 1.52 ГБ (1 637 042 176 байт)
   
Аватара пользователя

Администратор
Администратор
 
Раздал: 2.3 ПБ
Скачал: 1.01 ПБ
Ратио: 2.268
Сообщения: 2977
Зарегистрирован: 07 май 2010, 17:29
Medals: 1
Лучший релиз за месяц (1)
  • Личное сообщение
  • ICQ

  • Похожие торренты
    Ответы
    Просмотры
    Последнее сообщение

Вернуться в Фильмы 2016 (новинки)

Кто сейчас на конференции

Зарегистрированные пользователи: sergey_tr, ЗУРБАГАН

Ресурс не предоставляет электронные версии произведений, а занимается лишь коллекционированием и каталогизацией ссылок, присылаемых и публикуемых на форуме нашими читателями. Если вы являетесь правообладателем какого-либо представленного материала и не желаете чтобы ссылка на него находилась в нашем каталоге, свяжитесь с нами и мы незамедлительно удалим её. Файлы для обмена на трекере предоставлены пользователями сайта, и администрация не несёт ответственности за их содержание. Просьба не заливать файлы, защищенные авторскими правами, а также файлы нелегального содержания!
cron