Конец тура / The End of the Tour (2015) HDRip

Киноновинки, новинки кинопроката, горячие новинки

Модератор: Модераторы видео

  • Статистика раздачи
Размер: 2.05 ГБ   |  Зарегистрирован: 25 янв 2016, 01:52   |   .torrent скачан: 19 раз
Сидеров: 47  [ 0 байт/сек ]     Личеров: 1  [ 0 байт/сек ]  
Список файлов : Кто скачал : Раздают : Скачивают : Кто благодарил : История : Не раздающие : Запрашивали сидеров : Внешние трекеры 
  

Конец тура / The End of the Tour (2015) HDRip

Сообщение Админ » 25 янв 2016, 01:52

Конец тура / The End of the Tour (2015) HDRip

Производство: США
Жанр: Драма

Режиссер: Джеймс Понсольдт
Актеры: Джоан Кьюсак, Анна Кламски, Джесси Айзенберг, Джейсон Сигел, Мэми Гаммер, Рон Ливингстон, Мики Самнер, Бекки Энн Бэйкер, Дженифер Джельсэма, Челси Энн Лоуренс

Описание фильма: Вскоре после публикации романа «Бесконечная шутка» (позднее вошедшим в список ста лучших романов XX века по мнению Time) писатель Дэвид Фостер Уоллес отправляется в поездку с журналистом Rolling Stones Дэвидом Липски, готовящем о нем статью. За пять дней между ними возникла некая доверительная связь, позволившая каждому из них поделиться своими сокровенными мыслями и желаниями. Так или иначе, интервью никогда не было опубликовано — аудиокассеты отправились в шкаф Липски, а сами герои так больше и не встретились.



Продолжительность: 01:46:00
Качество видео: HDRip
Перевод: Профессиональный многоголосый
Субтитры: Отсутствуют

Видео: MPEG4, XviD, 720x304 (2.35:1), 23.976 fps, 1 857 Kbps (0.354 bit/pixel)
Аудио #1: AC-3, 48.0 KHz, 6 ch, 448 Kbps, CBR - русский
Аудио #2: AC-3, 48.0 KHz, 6 ch, 448 Kbps, CBR - английский

Код:
Код: Выделить всё
Общее
Полное имя                               : C:\NNM\Конец тура\Konec tura 2O15 HDRip 2000.avi
Формат                                   : AVI
Формат/Информация                        : Audio Video Interleave
Профиль формата                          : OpenDML
Размер файла                             : 2,05 Гбайт
Продолжительность                        : 1 ч. 46 м.
Общий поток                              : 2772 Кбит/сек
Программа кодирования                    : VirtualDubMod 1.5.10.3 (build 2550/release)
Библиотека кодирования                   : VirtualDubMod build 2550/release

Видео
Идентификатор                            : 0
Формат                                   : MPEG-4 Visual
Профиль формата                          : Advanced Simple@L5
Параметр BVOP формата                    : 2
Параметр QPel формата                    : Нет
Параметр GMC формата                     : Без точки перехода
Параметр матрицы формата                 : Default (MPEG)
Идентификатор кодека                     : XVID
Идентификатор кодека/Подсказка           : XviD
Продолжительность                        : 1 ч. 46 м.
Битрейт                                  : 1857 Кбит/сек
Ширина                                   : 720 пикселей
Высота                                   : 304 пикселя
Соотношение сторон                       : 2,35:1
Частота кадров                           : 23,976 кадра/сек
Цветовое пространство                    : YUV
Субдискретизация насыщенности            : 4:2:0
Битовая глубина                          : 8 бит
Тип развёртки                            : Прогрессивная
Метод сжатия                             : С потерями
Бит/(Пиксели*Кадры)                      : 0.354
Размер потока                            : 1,38 Гбайт (67%)
Библиотека кодирования                   : XviD 1.2.1 (UTC 2008-12-04)

Аудио #1
Идентификатор                            : 1
Формат                                   : AC-3
Формат/Информация                        : Audio Coding 3
Расширение режима                        : CM (complete main)
Идентификатор кодека                     : 2000
Продолжительность                        : 1 ч. 46 м.
Вид битрейта                             : Постоянный
Битрейт                                  : 448 Кбит/сек
Каналы                                   : 6 каналов
Расположение каналов                     : Front: L C R, Side: L R, LFE
Частота                                  : 48,0 КГц
Битовая глубина                          : 16 бит
Метод сжатия                             : С потерями
Задержка видео                           : 26 мс.
Размер потока                            : 340 Мбайт (16%)
Выравнивание                             : Разделение по промежуткам
Продолжительность промежутка             : 42  мс. (1,00 видеокадр)
Время предзагрузки промежутка            : 500  мс.

Аудио #2
Идентификатор                            : 2
Формат                                   : AC-3
Формат/Информация                        : Audio Coding 3
Расширение режима                        : CM (complete main)
Идентификатор кодека                     : 2000
Продолжительность                        : 1 ч. 46 м.
Вид битрейта                             : Постоянный
Битрейт                                  : 448 Кбит/сек
Каналы                                   : 6 каналов
Расположение каналов                     : Front: L C R, Side: L R, LFE
Частота                                  : 48,0 КГц
Битовая глубина                          : 16 бит
Метод сжатия                             : С потерями
Задержка видео                           : 26 мс.
Размер потока                            : 340 Мбайт (16%)
Выравнивание                             : Разделение по промежуткам
Продолжительность промежутка             : 42  мс. (1,00 видеокадр)
Время предзагрузки промежутка            : 500  мс.
Скриншоты:

Время раздачи:
Круглосуточно до 10 скачавших
Свою благодарность можете выразить - нажав красную
кнопку.
   
Торрент: Зарегистрирован [25 янв 2016, 01:52] Скачать торрент
Скачать торрент
О MediaGet
[ Размер 10.95 КБ / Просмотров 88 ]

Статус:
 
Приватный: Нет (DHT включён)
Размер: 2.05 ГБ (2 203 643 904 байт)
   
Аватара пользователя

Администратор
Администратор
 
Раздал: 2.3 ПБ
Скачал: 1.01 ПБ
Ратио: 2.270
Сообщения: 2997
Зарегистрирован: 07 май 2010, 17:29
Medals: 1
Лучший релиз за месяц (1)
  • Личное сообщение
  • ICQ

  • Похожие торренты
    Ответы
    Просмотры
    Последнее сообщение

Вернуться в Фильмы 2016 (новинки)

Кто сейчас на конференции

Зарегистрированные пользователи: Dom_777, kilinbel, leomartin, Nolimit, sergej-asd

Ресурс не предоставляет электронные версии произведений, а занимается лишь коллекционированием и каталогизацией ссылок, присылаемых и публикуемых на форуме нашими читателями. Если вы являетесь правообладателем какого-либо представленного материала и не желаете чтобы ссылка на него находилась в нашем каталоге, свяжитесь с нами и мы незамедлительно удалим её. Файлы для обмена на трекере предоставлены пользователями сайта, и администрация не несёт ответственности за их содержание. Просьба не заливать файлы, защищенные авторскими правами, а также файлы нелегального содержания!
cron