Последний охотник на ведьм / The Last Witch Hunter (2015) BDRip [H.264/720р-LQ]

Киноновинки, новинки кинопроката, горячие новинки

Модератор: Модераторы видео

  • Статистика раздачи
Размер: 2.64 ГБ   |  Зарегистрирован: 23 янв 2016, 09:40   |   .torrent скачан: 50 раз
Сидеров: 384  [ 0 байт/сек ]     Личеров: 4  [ 0 байт/сек ]  
Список файлов : Кто скачал : Раздают : Скачивают : Кто благодарил : История : Не раздающие : Запрашивали сидеров : Внешние трекеры 
  

Последний охотник на ведьм / The Last Witch Hunter (2015) BDRip [H.264/720р-LQ]

Сообщение Боцман » 23 янв 2016, 09:40

Последний охотник на ведьм / The Last Witch Hunter (2015) BDRip [H.264/720р-LQ]

Производство: США, Китай, Канада / Aperture Entertainment, Atmosphere Entertainment MM, Goldmann Pictures, NeoReel, One Race Films, Summit Entertainment, TIK Films
Жанр: Фэнтези, боевик, Приключения

Режиссер: Брек Эйснер
Продюсер: Марк Кантон, Вин Дизель, Берни Голдманн
Актеры: Вин Дизель, Роуз Лесли, Элайджа Вуд, Оулавюр Дарри Оулафссон, Рина Оуэн, Юли Энгельбрехт, Майкл Кейн, Джозеф Гилган, Исаак Де Банколе, Майкл Халсли

Описание:
Современный мир скрывает множество секретов, но самым удивительным из них является то, что ведьмы до сих пор живут среди нас. Это злобные сверхъестественные существа, чья цель — наслать на мир смертоносную чуму. Армии охотников на ведьм сражались с ними на протяжении многих веков.
В наши дни остался всего лишь один охотник на ведьм, Колдер, которому однажды удалось убить всемогущую королеву ведьм. Но Колдер еще не знает, что королева воскресла и жаждет отомстить своему убийце…


Дата мировой премьеры: 13.10.2015
Дата премьеры в России: 29.10.2015

Продолжительность: 01:46:34
Качество видео: BDRip
Перевод: Дублированный (iTunes Russia)
Язык субтитров: Английский
Вид субтитров: Вшитые, отключаемые

Видео: AVC/H.264, 1280x536, ~2650 Kbps
Аудио 1: Русский, AC3, 6 ch, 448 Kbps, 48.0 kHz
Аудио 2: Английский, AC3, 6 ch, 448 Kbps, 48.0 kHz
Семпл: Скачать
Код:
Код: Выделить всё
General
Unique ID                                : 198989194366171325590773681470124555894 (0x95B3ECBFF34B14A7B2FB9AC6D0AB7E76)
Complete name                            : F:\Downloads\Последний охотник на ведьм.mkv
Format                                   : Matroska
Format version                           : Version 4 / Version 2
File size                                : 2.64 GiB
Duration                                 : 1h 46mn
Overall bit rate                         : 3 547 Kbps
Encoded date                             : UTC 2016-01-23 01:52:27
Writing application                      : mkvmerge v7.0.0 ('Where We Going') 32bit built on Jun  9 2014 15:08:34
Writing library                          : libebml v1.3.0 + libmatroska v1.4.1
_STATISTICS_WRITING_APP                  : mkvmerge v7.0.0 ('Where We Going') 32bit built on Jun  9 2014 15:08:34
_STATISTICS_WRITING_DATE_UTC             : 2016-01-23 01:52:27
_STATISTICS_TAGS                         : BPS DURATION NUMBER_OF_FRAMES NUMBER_OF_BYTES
DURATION                                 : 01:46:34.400000000
NUMBER_OF_FRAMES                         : 199825
NUMBER_OF_BYTES                          : 358086400

Video
ID                                       : 1
Format                                   : AVC
Format/Info                              : Advanced Video Codec
Format profile                           :
Format settings, CABAC                   : Yes
Format settings, ReFrames                : 8 frames
Codec ID                                 : V_MPEG4/ISO/AVC
Duration                                 : 1h 46mn
Bit rate                                 : 2 650 Kbps
Width                                    : 1 280 pixels
Height                                   : 536 pixels
Display aspect ratio                     : 2.40:1
Frame rate mode                          : Constant
Frame rate                               : 23.976 fps
Color space                              : YUV
Chroma subsampling                       : 4:2:0
Bit depth                                : 8 bits
Scan type                                : Progressive
Bits/(Pixel*Frame)                       : 0.161
Stream size                              : 1.92 GiB (73%)
Title                                    : The Last Witch Hunter
Writing library                          : x264 core 125 r2208 d9d2288
Encoding settings                        : cabac=1 / ref=8 / deblock=1:-1:-1 / analyse=0x3:0x133 / me=umh / subme=9 / psy=1 / psy_rd=1.00:0.10 / mixed_ref=1 / me_range=32 / chroma_me=1 / trellis=2 / 8x8dct=1 / cqm=0 / deadzone=21,11 / fast_pskip=0 / chroma_qp_offset=-3 / threads=6 / lookahead_threads=1 / sliced_threads=0 / nr=0 / decimate=1 / interlaced=0 / bluray_compat=0 / constrained_intra=0 / bframes=3 / b_pyramid=2 / b_adapt=2 / b_bias=0 / direct=3 / weightb=1 / open_gop=0 / weightp=2 / keyint=250 / keyint_min=25 / scenecut=40 / intra_refresh=0 / rc_lookahead=60 / rc=2pass / mbtree=1 / bitrate=2650 / ratetol=1.0 / qcomp=0.60 / qpmin=0 / qpmax=69 / qpstep=4 / cplxblur=20.0 / qblur=0.5 / ip_ratio=1.40 / aq=1:1.00
Language                                 : English
Default                                  : Yes
Forced                                   : No

Audio #1
ID                                       : 2
Format                                   : AC-3
Format/Info                              : Audio Coding 3
Mode extension                           : CM (complete main)
Format settings, Endianness              : Big
Codec ID                                 : A_AC3
Duration                                 : 1h 46mn
Bit rate mode                            : Constant
Bit rate                                 : 448 Kbps
Channel(s)                               : 6 channels
Channel positions                        : Front: L C R, Side: L R, LFE
Sampling rate                            : 48.0 KHz
Bit depth                                : 16 bits
Compression mode                         : Lossy
Stream size                              : 341 MiB (13%)
Title                                    : Дубляж, iTunes Russia
Language                                 : Russian
Default                                  : Yes
Forced                                   : No

Audio #2
ID                                       : 3
Format                                   : AC-3
Format/Info                              : Audio Coding 3
Mode extension                           : CM (complete main)
Format settings, Endianness              : Big
Codec ID                                 : A_AC3
Duration                                 : 1h 46mn
Bit rate mode                            : Constant
Bit rate                                 : 448 Kbps
Channel(s)                               : 6 channels
Channel positions                        : Front: L C R, Side: L R, LFE
Sampling rate                            : 48.0 KHz
Bit depth                                : 16 bits
Compression mode                         : Lossy
Stream size                              : 341 MiB (13%)
Title                                    : Оригинал
Language                                 : English
Default                                  : No
Forced                                   : No

Text #1
ID                                       : 4
Format                                   : UTF-8
Codec ID                                 : S_TEXT/UTF8
Codec ID/Info                            : UTF-8 Plain Text
Title                                    : SDH
Language                                 : English
Default                                  : No
Forced                                   : No

Text #2
ID                                       : 5
Format                                   : UTF-8
Codec ID                                 : S_TEXT/UTF8
Codec ID/Info                            : UTF-8 Plain Text
Title                                    : Full
Language                                 : English
Default                                  : No
Forced                                   : No

Скриншоты:



Время раздачи: с 14:00 до 02:00 МСК (выходные круглосуточно), до 10 скачавших
   
Торрент: Зарегистрирован [23 янв 2016, 09:40] Скачать торрент
Скачать торрент
О MediaGet
[ Размер 13.97 КБ / Просмотров 252 ]

Статус:
 
Приватный: Нет (DHT включён)
Размер: 2.64 ГБ (2 835 300 669 байт)
   
Хочешь стать частью команды MZ-Tracker?
Запишись
ТУТ
Аватара пользователя

Супермодератор
Супермодератор
 
Раздал: 12.57 ГБ
Скачал: 907.51 ГБ
Ратио: 0.017
Сообщения: 4359
Фото: 292
Зарегистрирован: 19 июн 2008, 23:00

Вернуться в Фильмы 2016 (новинки)

Кто сейчас на конференции

Зарегистрированные пользователи: Starsnerus x 1

Ресурс не предоставляет электронные версии произведений, а занимается лишь коллекционированием и каталогизацией ссылок, присылаемых и публикуемых на форуме нашими читателями. Если вы являетесь правообладателем какого-либо представленного материала и не желаете чтобы ссылка на него находилась в нашем каталоге, свяжитесь с нами и мы незамедлительно удалим её. Файлы для обмена на трекере предоставлены пользователями сайта, и администрация не несёт ответственности за их содержание. Просьба не заливать файлы, защищенные авторскими правами, а также файлы нелегального содержания!
cron