Вуаль / The Veil (2016) WEB-DLRip

Киноновинки, новинки кинопроката, горячие новинки

Модератор: Модераторы видео

  • Статистика раздачи
Размер: 1.49 ГБ   |  Зарегистрирован: 23 янв 2016, 00:30   |   .torrent скачан: 12 раз
Сидеров: 271  [ 0 байт/сек ]     Личеров: 15  [ 0 байт/сек ]  
Список файлов : Кто скачал : Раздают : Скачивают : Кто благодарил : История : Не раздающие : Запрашивали сидеров : Внешние трекеры 
  

Вуаль / The Veil (2016) WEB-DLRip

Сообщение Админ » 23 янв 2016, 00:30

Вуаль / The Veil (2016) WEB-DLRip

Производство: США
Жанр: Триллер, Ужасы

Режиссер: Фил Джоану
Продюсер: Джейсон Блум, Роберт Бен Гарант, Жанетт Брилл
Актеры: Джессика Альба, Томас Джейн, Лили Рэйб, Шеннон Мари Вудворд, Рейд Скотт, Алекса Палладино, Ленни Джейкобсон, Айви Джордж, Джек Де Сена

Описание:
Джим Джейкобс создал особый религиозный культ. В нем царила особая атмосфера. Он проводил над его членами различные эксперименты. Но самым шокирующим было то, что все члены этого культа совершили обряд массового самоубийства. Но одному человеку удалось выжить. С тех пор прошло 30 лет. К тому самому выжившему обращается группа документалистов, которые хотят снять фильм о тех событиях. Мужчина приводит съемочную группу на место трагедии, где по прошествии лет до сих пор происходят ужасные вещи...


Дата мировой премьеры: 2 февраля 2016

Продолжительность: 01:33:33
Качество видео: WEB-DLRip
Перевод: Двуголосый закадровый, любительский (Parovoz Production)

Видео: Xvid, 720x304, ~1696 Кбит/с
Аудио 1 : MP3, 2 ch, 192 Кбит/с - Русский, CBR
Аудио 2 : AC3, 6 ch, 384 Кбит/с - Английский, CBR
Код:
Код: Выделить всё
Общее
Полное имя                               : D:\FILMЬl\2016 MONK\Vual`.2015.avi
Формат                                   : AVI
Формат/Информация                        : Audio Video Interleave
Размер файла                             : 1,49 Гбайт
Продолжительность                        : 1 ч. 33 м.
Общий поток                              : 2286 Кбит/сек
Программа кодирования                    : VirtualDubMod 1.5.10.3 | (build 2550/release)
Библиотека кодирования                   : VirtualDubMod build 2550/release

Видео
Идентификатор                            : 0
Формат                                   : MPEG-4 Visual
Профиль формата                          : Advanced Simple@L5
Параметр BVOP формата                    : 2
Параметр QPel формата                    : Нет
Параметр GMC формата                     : Без точки перехода
Параметр матрицы формата                 : Default (H.263)
Режим смешивания                         : Сжатый битовый поток
Идентификатор кодека                     : XVID
Идентификатор кодека/Подсказка           : XviD
Продолжительность                        : 1 ч. 33 м.
Битрейт                                  : 1696 Кбит/сек
Ширина                                   : 720 пикселей
Высота                                   : 304 пикселя
Соотношение сторон                       : 2,35:1
Частота кадров                           : 23,976 кадра/сек
Цветовое пространство                    : YUV
Субдискретизация насыщенности            : 4:2:0
Битовая глубина                          : 8 бит
Тип развёртки                            : Прогрессивная
Метод сжатия                             : С потерями
Бит/(Пиксели*Кадры)                      : 0.323
Размер потока                            : 1,11 Гбайт (74%)
Библиотека кодирования                   : XviD 66

Аудио #1
Идентификатор                            : 1
Формат                                   : MPEG Audio
Версия формата                           : Version 1
Профиль формата                          : Layer 3
Режим                                    : Joint stereo
Расширение режима                        : MS Stereo
Идентификатор кодека                     : 55
Идентификатор кодека/Подсказка           : MP3
Продолжительность                        : 1 ч. 33 м.
Вид битрейта                             : Постоянный
Битрейт                                  : 192 Кбит/сек
Каналы                                   : 2 канала
Частота                                  : 48,0 КГц
Метод сжатия                             : С потерями
Размер потока                            : 128 Мбайт (8%)
Выравнивание                             : Соединение по промежуткам
Продолжительность промежутка             : 42  мс. (1,00 видеокадр)
Время предзагрузки промежутка            : 504  мс.

Аудио #2
Идентификатор                            : 2
Формат                                   : AC-3
Формат/Информация                        : Audio Coding 3
Расширение режима                        : CM (complete main)
Параметр Endianness формата              : Big
Идентификатор кодека                     : 2000
Продолжительность                        : 1 ч. 33 м.
Вид битрейта                             : Постоянный
Битрейт                                  : 384 Кбит/сек
Каналы                                   : 6 каналов
Расположение каналов                     : Front: L C R, Side: L R, LFE
Частота                                  : 48,0 КГц
Метод сжатия                             : С потерями
Размер потока                            : 257 Мбайт (17%)
Выравнивание                             : Соединение по промежуткам
Продолжительность промежутка             : 42  мс. (1,00 видеокадр)
Время предзагрузки промежутка            : 512  мс.

Скриншоты:



Время раздачи: С 09:00 до 23:30 до 5 скачавших
   
Торрент: Зарегистрирован [23 янв 2016, 00:30] Скачать торрент
Скачать торрент
О MediaGet
[ Размер 15.69 КБ / Просмотров 91 ]

Статус:
 
Приватный: Нет (DHT включён)
Размер: 1.49 ГБ (1 603 672 064 байт)
   
Аватара пользователя

Администратор
Администратор
 
Раздал: 2.29 ПБ
Скачал: 1.01 ПБ
Ратио: 2.266
Сообщения: 2967
Зарегистрирован: 07 май 2010, 17:29
Medals: 1
Лучший релиз за месяц (1)
  • Личное сообщение
  • ICQ

  • Похожие торренты
    Ответы
    Просмотры
    Последнее сообщение

Вернуться в Фильмы 2016 (новинки)

Кто сейчас на конференции

Зарегистрированные пользователи: Dimkinzx, EAst, kabarda07, kilinbel, Nolimit, Starsnerus x 1, viRUSik

Ресурс не предоставляет электронные версии произведений, а занимается лишь коллекционированием и каталогизацией ссылок, присылаемых и публикуемых на форуме нашими читателями. Если вы являетесь правообладателем какого-либо представленного материала и не желаете чтобы ссылка на него находилась в нашем каталоге, свяжитесь с нами и мы незамедлительно удалим её. Файлы для обмена на трекере предоставлены пользователями сайта, и администрация не несёт ответственности за их содержание. Просьба не заливать файлы, защищенные авторскими правами, а также файлы нелегального содержания!
cron