Лунная афера / Moonwalkers (2015) WEB-DLRip [H.264/720p-LQ] [VO]

Киноновинки, новинки кинопроката, горячие новинки

Модератор: Модераторы видео

  • Статистика раздачи
Размер: 2.89 ГБ   |  Зарегистрирован: 21 янв 2016, 22:05   |   .torrent скачан: 17 раз
Сидеров: 1345  [ 0 байт/сек ]     Личеров: 12  [ 0 байт/сек ]  
Список файлов : Кто скачал : Раздают : Скачивают : Кто благодарил : История : Не раздающие : Запрашивали сидеров : Внешние трекеры 
  

Лунная афера / Moonwalkers (2015) WEB-DLRip [H.264/720p-LQ] [VO]

Сообщение Админ » 21 янв 2016, 22:05

Лунная афера / Moonwalkers (2015) WEB-DLRip

Производство: Франция
Жанр: Комедия

Режиссер: Антуан Бардо-Жаке
Продюсер: Жорж Берманн, Дэвид Клейкенс, Алекс Вербаер
Актеры: Руперт Гринт, Рон Перлман, Роберт Шиэн, Стивен Кэмпбелл Мур, Том Ауденарт, Кевин Бишоп, Эрик Лёмпарт, Эрика Сэйнт, Джей Бенедикт, Джон Фландерс

Описание:
А что если «Аполлон 11» никуда не высаживался? А знаменитое видео о высадке людей на Луну на самом деле снято Стэнли Кубриком по заказу правительства США, в обстановке строжайшей секретности. Эта вполне правдоподобная теория заговора и легла в основу «Гуляющих по Луне». Страдающий расстройствами психики агент Кидман отправляется в хиппующий Лондон, чтобы поручить Стэнли Кубрику сверхзаконсперированное задание от ЦРУ. Операция провалилась, и теперь ему придется объединить усилия вместе с менеджером паршивой рок-группы и сделать самое конфиденциальное видео в мире.
А еще постараться не налажать.


Дата мировой премьеры: 14 марта 2015
Дата премьеры в России: 17 марта 2016, «Парадиз»

Продолжительность: 01:36:22
Качество видео: WEB-DLRip
Перевод: Одноголосый закадровый, любительский (kim-de-form_jr)
Вид субтитров: Отсутствуют

Видео: AVC/H.264, 1280x536 (2,40:1), ~4000 Кбит/с
Аудио: AC3, 2 ch, 256 Кбит/с
Код:
Код: Выделить всё
Общее
Уникальный идентификатор                 : 292516743483802619348198799832855700404 (0xDC10ACF0E934B79EF87D35B1BD9563B4)
Полное имя                               : D:\KINO 3\2 JANUR\Lunnaya.Afera.2015.720p.mkv
Формат                                   : Matroska
Версия формата                           : Version 4 / Version 2
Размер файла                             : 2,89 Гбайт
Продолжительность                        : 1 ч. 36 м.
Общий поток                              : 4300 Кбит/сек
Название фильма                          : Moonwalkers.2015.1080p.WEB-DL.DD5.1.H264-FGT
Программа кодирования                    : Lavf56.25.101
Библиотека кодирования                   : Lavf56.25.101

Видео
Идентификатор                            : 1
Формат                                   : AVC
Формат/Информация                        : Advanced Video Codec
Профиль формата                          :
Параметр CABAC формата                   : Нет
Параметр ReFrames формата                : 1 кадр
Идентификатор кодека                     : V_MPEG4/ISO/AVC
Продолжительность                        : 1 ч. 36 м.
Битрейт                                  : 4000 Кбит/сек
Ширина                                   : 1280 пикселей
Высота                                   : 536 пикселей
Соотношение сторон                       : 2,40:1
Режим частоты кадров                     : Постоянный
Частота кадров                           : 23,976 кадра/сек
Цветовое пространство                    : YUV
Субдискретизация насыщенности            : 4:2:0
Битовая глубина                          : 8 бит
Тип развёртки                            : Прогрессивная
Бит/(Пиксели*Кадры)                      : 0.243
Размер потока                            : 2,66 Гбайт (92%)
Заголовок                                : Moonwalkers.2015.1080p.WEB-DL.DD5.1.H264-FGT
Библиотека кодирования                   : x264 core 144 r2533 c8a773e
Настройки программы                      : cabac=0 / ref=1 / deblock=1:0:0 / analyse=0x1:0x111 / me=hex / subme=7 / psy=1 / psy_rd=1.00:0.00 / mixed_ref=0 / me_range=16 / chroma_me=1 / trellis=1 / 8x8dct=0 / cqm=0 / deadzone=21,11 / fast_pskip=1 / chroma_qp_offset=-2 / threads=3 / lookahead_threads=1 / sliced_threads=0 / nr=0 / decimate=1 / interlaced=0 / bluray_compat=0 / constrained_intra=0 / bframes=0 / weightp=0 / keyint=250 / keyint_min=25 / scenecut=40 / intra_refresh=0 / rc_lookahead=40 / rc=abr / mbtree=1 / bitrate=4000 / ratetol=1.0 / qcomp=0.60 / qpmin=10 / qpmax=51 / qpstep=4 / ip_ratio=1.41 / aq=1:1.00
Язык                                     : English
Default                                  : Да
Forced                                   : Нет

Аудио
Идентификатор                            : 2
Формат                                   : AC-3
Формат/Информация                        : Audio Coding 3
Расширение режима                        : CM (complete main)
Параметр Endianness формата              : Big
Идентификатор кодека                     : A_AC3
Продолжительность                        : 1 ч. 36 м.
Вид битрейта                             : Постоянный
Битрейт                                  : 256 Кбит/сек
Каналы                                   : 2 канала
Расположение каналов                     : Front: L R
Частота                                  : 48,0 КГц
Битовая глубина                          : 16 бит
Метод сжатия                             : С потерями
Задержка видео                           : -5 мс.
Размер потока                            : 176 Мбайт (6%)
Заголовок                                : Russian_(kim-de-form_jr)
Библиотека кодирования                   : Lavc56.41.100 ac3
Язык                                     : Russian
Default                                  : Нет
Forced                                   : Нет

Меню
00:00:00.000                             : :1
00:09:49.000                             : :2
00:19:25.000                             : :3
00:26:26.000                             : :4
00:33:08.000                             : :5
00:44:48.000                             : :6
00:53:43.000                             : :7
00:59:44.000                             : :8
01:08:03.000                             : :9
01:16:47.000                             : :10
01:23:17.000                             : :11
01:32:35.000                             : :12

Скриншоты:



Время раздачи: С 09:00 до 23:30 до 5 скачавших
   
Торрент: Зарегистрирован [21 янв 2016, 22:05] Скачать торрент
Скачать торрент
О MediaGet
[ Размер 15.2 КБ / Просмотров 115 ]

Статус:
 
Приватный: Нет (DHT включён)
Размер: 2.89 ГБ (3 108 231 019 байт)
   
Аватара пользователя

Администратор
Администратор
 
Раздал: 2.3 ПБ
Скачал: 1.01 ПБ
Ратио: 2.270
Сообщения: 2997
Зарегистрирован: 07 май 2010, 17:29
Medals: 1
Лучший релиз за месяц (1)
  • Личное сообщение
  • ICQ

  • Похожие торренты
    Ответы
    Просмотры
    Последнее сообщение

Вернуться в Фильмы 2016 (новинки)

Кто сейчас на конференции

Зарегистрированные пользователи: kilinbel, leomartin, Nolimit

Ресурс не предоставляет электронные версии произведений, а занимается лишь коллекционированием и каталогизацией ссылок, присылаемых и публикуемых на форуме нашими читателями. Если вы являетесь правообладателем какого-либо представленного материала и не желаете чтобы ссылка на него находилась в нашем каталоге, свяжитесь с нами и мы незамедлительно удалим её. Файлы для обмена на трекере предоставлены пользователями сайта, и администрация не несёт ответственности за их содержание. Просьба не заливать файлы, защищенные авторскими правами, а также файлы нелегального содержания!
cron