Идеальный день / A Perfect Day (2015) WEB-DLRip [H.264]

Киноновинки, новинки кинопроката, горячие новинки

Модератор: Модераторы видео

  • Статистика раздачи
Размер: 1.87 ГБ   |  Зарегистрирован: 21 янв 2016, 22:04   |   .torrent скачан: 20 раз
Сидеров: 656  [ 0 байт/сек ]     Личеров: 14  [ 0 байт/сек ]  
Список файлов : Кто скачал : Раздают : Скачивают : Кто благодарил : История : Не раздающие : Запрашивали сидеров : Внешние трекеры 
  

Идеальный день / A Perfect Day (2015) WEB-DLRip [H.264]

Сообщение Админ » 21 янв 2016, 22:04

Идеальный день / A Perfect Day (2015) WEB-DLRip

Производство: Испания
Жанр: Драма

Режиссер: Фернандо Леон Де Араноа
Продюсер: Луис Фернандес Лаго, Патриция де Мунс, Хавьер Мендес
Актеры: Бенисио Дель Торо, Тим Роббинс, Ольга Куриленко, Мелани Тьерри, Федя Стукан, Серхи Лопес, Ненад Вукелич, Франк Фейс, Мортен Суурбалле

Описание:
Группа сотрудников гуманитарной службы пытается достать труп из колодца в зоне конфликта. Кто-то бросил туда тело, чтобы отравить воду, и местные люди мучаются от жажды. Задача, которая кажется простейшей, превращается в невыполнимую миссию, в которой злейший враг — иррациональность. Работники пересекают местность, охваченную войной, пытаясь решить эту проблему.


Дата мировой премьеры: 16 мая 2015

Продолжительность: 01:45:48
Качество видео: WEB-DLRip
Перевод: Многоголосый закадровый, профессиональный (Paradox & Omskbird records)
Вид субтитров: Отсутствуют

Видео: AVC/H.264, 1024x426 (2,40:1), ~2150 Кбит/с
Аудио: AC3, 2 ch, 384 Кбит/с, CBR
Код:
Код: Выделить всё
Общее
Уникальный идентификатор                 : 204296418795086035704050713284901779057 (0x99B20F1DD35D24A0B3F4ED5594D6B671)
Полное имя                               : D:\KINO 3\2 JANUR\Idealnui.Denh.2015.mkv
Формат                                   : Matroska
Версия формата                           : Version 4 / Version 2
Размер файла                             : 1,87 Гбайт
Продолжительность                        : 1 ч. 45 м.
Общий поток                              : 2532 Кбит/сек
Дата кодирования                         : UTC 2016-01-21 06:52:05
Программа кодирования                    : mkvmerge v8.6.1 ('Flying') 32bit
Библиотека кодирования                   : libebml v1.3.3 + libmatroska v1.4.4
DURATION                                 : 01:45:47.904000000
NUMBER_OF_FRAMES                         : 198372
NUMBER_OF_BYTES                          : 304699392
_STATISTICS_WRITING_APP                  : mkvmerge v8.6.1 ('Flying') 32bit
_STATISTICS_WRITING_DATE_UTC             : 2016-01-21 06:52:05
_STATISTICS_TAGS                         : BPS DURATION NUMBER_OF_FRAMES NUMBER_OF_BYTES

Видео
Идентификатор                            : 1
Формат                                   : AVC
Формат/Информация                        : Advanced Video Codec
Профиль формата                          :
Параметр CABAC формата                   : Да
Параметр ReFrames формата                : 10 кадров
Идентификатор кодека                     : V_MPEG4/ISO/AVC
Продолжительность                        : 1 ч. 45 м.
Битрейт                                  : 2150 Кбит/сек
Ширина                                   : 1024 пикселя
Высота                                   : 426 пикселей
Соотношение сторон                       : 2,40:1
Соотношение сторон в оригинале           : 2,40:1
Режим частоты кадров                     : Постоянный
Частота кадров                           : 24,000 кадра/сек
Стандарт вещания                         : Component
Цветовое пространство                    : YUV
Субдискретизация насыщенности            : 4:2:0
Битовая глубина                          : 8 бит
Тип развёртки                            : Прогрессивная
Бит/(Пиксели*Кадры)                      : 0.205
Размер потока                            : 1,55 Гбайт (83%)
Библиотека кодирования                   : x264 core 144 r2525
Настройки программы                      : cabac=1 / ref=10 / deblock=1:-2:-2 / analyse=0x3:0x112 / me=umh / subme=9 / psy=1 / psy_rd=1.00:1.00 / mixed_ref=0 / me_range=16 / chroma_me=1 / trellis=1 / 8x8dct=1 / cqm=0 / deadzone=21,11 / fast_pskip=1 / chroma_qp_offset=-4 / threads=6 / lookahead_threads=1 / sliced_threads=0 / nr=0 / decimate=1 / interlaced=0 / bluray_compat=0 / constrained_intra=0 / bframes=10 / b_pyramid=2 / b_adapt=2 / b_bias=6 / direct=3 / weightb=0 / open_gop=0 / weightp=1 / keyint=240 / keyint_min=24 / scenecut=49 / intra_refresh=0 / rc_lookahead=40 / rc=2pass / mbtree=1 / bitrate=2150 / ratetol=1.0 / qcomp=0.80 / qpmin=4 / qpmax=69 / qpstep=10 / cplxblur=20.0 / qblur=0.5 / ip_ratio=1.00 / aq=3:1.00
Default                                  : Да
Forced                                   : Нет
colour_range                             : Limited
DURATION                                 : 01:45:47.959000000
NUMBER_OF_FRAMES                         : 152351
NUMBER_OF_BYTES                          : 1703455059
_STATISTICS_WRITING_APP                  : mkvmerge v8.6.1 ('Flying') 32bit
_STATISTICS_WRITING_DATE_UTC             : 2016-01-21 06:52:05
_STATISTICS_TAGS                         : BPS DURATION NUMBER_OF_FRAMES NUMBER_OF_BYTES

Аудио
Идентификатор                            : 2
Формат                                   : AC-3
Формат/Информация                        : Audio Coding 3
Расширение режима                        : CM (complete main)
Параметр Endianness формата              : Big
Идентификатор кодека                     : A_AC3
Продолжительность                        : 1 ч. 45 м.
Вид битрейта                             : Постоянный
Битрейт                                  : 384 Кбит/сек
Каналы                                   : 2 канала
Расположение каналов                     : Front: L R
Частота                                  : 48,0 КГц
Битовая глубина                          : 16 бит
Метод сжатия                             : С потерями
Задержка видео                           : -53 мс.
Размер потока                            : 291 Мбайт (15%)
Язык                                     : Russian
Default                                  : Да
Forced                                   : Нет

Скриншоты:



Время раздачи: С 09:00 до 23:30 до 5 скачавших
   
Торрент: Зарегистрирован [21 янв 2016, 22:04] Скачать торрент
Скачать торрент
О MediaGet
[ Размер 19.42 КБ / Просмотров 110 ]

Статус:
 
Приватный: Нет (DHT включён)
Размер: 1.87 ГБ (2 009 518 713 байт)
   
Аватара пользователя

Администратор
Администратор
 
Раздал: 2.3 ПБ
Скачал: 1.01 ПБ
Ратио: 2.270
Сообщения: 2997
Зарегистрирован: 07 май 2010, 17:29
Medals: 1
Лучший релиз за месяц (1)
  • Личное сообщение
  • ICQ

Вернуться в Фильмы 2016 (новинки)

Кто сейчас на конференции

Зарегистрированные пользователи: MOBILE666, Nolimit

Ресурс не предоставляет электронные версии произведений, а занимается лишь коллекционированием и каталогизацией ссылок, присылаемых и публикуемых на форуме нашими читателями. Если вы являетесь правообладателем какого-либо представленного материала и не желаете чтобы ссылка на него находилась в нашем каталоге, свяжитесь с нами и мы незамедлительно удалим её. Файлы для обмена на трекере предоставлены пользователями сайта, и администрация не несёт ответственности за их содержание. Просьба не заливать файлы, защищенные авторскими правами, а также файлы нелегального содержания!
cron