Сын миллиардера / Billionaire Boy (2016) HDTVRip [H.264/720p-LQ]

Киноновинки, новинки кинопроката, горячие новинки

Модератор: Модераторы видео

  • Статистика раздачи
Размер: 1.51 ГБ   |  Зарегистрирован: 19 янв 2016, 02:55   |   .torrent скачан: 17 раз
Сидеров: 191  [ 0 байт/сек ]     Личеров: 15  [ 0 байт/сек ]  
Список файлов : Кто скачал : Раздают : Скачивают : Кто благодарил : История : Не раздающие : Запрашивали сидеров : Внешние трекеры 
  

Сын миллиардера / Billionaire Boy (2016) HDTVRip [H.264/720p-LQ]

Сообщение Админ » 19 янв 2016, 02:55

Сын миллиардера / Billionaire Boy (2016) HDTVRip

Производство: Великобритания / BBC Comedy, BBC Television Centre, Bert Productions
Жанр: Комедия

Режиссер: Мэтт Липси
Актеры: Эллиот Спрейк, Джон Томсон, Шон МакКензи, Тодд Бойс, Тина Чианг, Уорвик Дэвис,
Кэтрин Тейт, Джеймс Флит, Ребекка Фронт

Описание: Джо — сын миллиардера, сделавшего состояние на туалетной бумаге. Он живет в замке и ездит в школу на Роллс-Ройсе. Короче, у него есть все...кроме друзей. И пока папа заводит интрижку с фотомоделью (ведь настоящие миллиардеры встречаются только с моделями), Джо пытается найти общий язык со сверстниками.


Дата мировой премьеры: 1 января 2016

Продолжительность: 00:59:34
Качество видео: HDTVRip (720p-LQ)
Перевод: Любительский одноголосый (Lord32x)
Язык субтитров: Русский
Вид субтитров: Вшитые (отключаемые)
Реклама: Присутствуют голосовые вставки рекламы.

Видео: AVC, 1280x720 (16:9), 25.000 fps, 3 250 Kbps (0.141 bit/pixel)
Аудио #1: MP3, 48.0 KHz, 2 ch, 192 Kbps, CBR | Русский
Аудио #2: AC-3, 48.0 KHz, 2 ch, 192 Kbps, CBR | Английский
Код: Выделить всё
Общее
Уникальный идентификатор                 : 190732974713601958266806282275705159925 (0x8F7DD5B168BA67F58F7C71D0E1C180F5)
Полное имя                               : C:\_\Сын миллиардера\Syn milliardera 2016 HDTVRip 720p-LQ.mkv
Формат                                   : Matroska
Версия формата                           : Version 2
Размер файла                             : 1,51 Гбайт
Продолжительность                        : 59 м.
Общий поток                              : 3639 Кбит/сек
Дата кодирования                         : UTC 2016-01-11 10:15:29
Программа кодирования                    : mkvmerge v7.8.0 ('River Man') 32bit built on Apr  3 2015 12:11:22
Библиотека кодирования                   : libebml v1.3.1 + libmatroska v1.4.2

Видео
Идентификатор                            : 1
Формат                                   : AVC
Формат/Информация                        : Advanced Video Codec
Профиль формата                          :
Параметр CABAC формата                   : Нет
Параметр ReFrames формата                : 1 кадр
Идентификатор кодека                     : V_MPEG4/ISO/AVC
Продолжительность                        : 59 м.
Битрейт                                  : 3250 Кбит/сек
Ширина                                   : 1280 пикселей
Высота                                   : 720 пикселей
Соотношение сторон                       : 16:9
Частота кадров                           : 25,000 кадров/сек
Цветовое пространство                    : YUV
Субдискретизация насыщенности            : 4:2:0
Битовая глубина                          : 8 бит
Тип развёртки                            : Прогрессивная
Бит/(Пиксели*Кадры)                      : 0.141
Размер потока                            : 1,32 Гбайт (87%)
Библиотека кодирования                   : x264 core 116 r2019 9cc407d
Настройки программы                      : cabac=0 / ref=1 / deblock=1:0:0 / analyse=0x3:0x113 / me=hex / subme=7 / psy=1 / psy_rd=1.00:0.00 / mixed_ref=0 / me_range=16 / chroma_me=1 / trellis=1 / 8x8dct=1 / cqm=0 / deadzone=21,11 / fast_pskip=1 / chroma_qp_offset=-2 / threads=6 / sliced_threads=0 / nr=0 / decimate=1 / interlaced=0 / bluray_compat=0 / constrained_intra=0 / bframes=0 / weightp=2 / keyint=250 / keyint_min=25 / scenecut=40 / intra_refresh=0 / rc_lookahead=40 / rc=2pass / mbtree=1 / bitrate=3250 / ratetol=1.0 / qcomp=0.60 / qpmin=0 / qpmax=69 / qpstep=4 / cplxblur=20.0 / qblur=0.5 / ip_ratio=1.40 / aq=1:1.00
Default                                  : Да
Forced                                   : Нет

Аудио #1
Идентификатор                            : 2
Формат                                   : MPEG Audio
Версия формата                           : Version 1
Профиль формата                          : Layer 3
Режим                                    : Joint stereo
Расширение режима                        : MS Stereo
Идентификатор кодека                     : A_MPEG/L3
Идентификатор кодека/Подсказка           : MP3
Продолжительность                        : 59 м.
Вид битрейта                             : Постоянный
Битрейт                                  : 192 Кбит/сек
Каналы                                   : 2 канала
Частота                                  : 48,0 КГц
Метод сжатия                             : С потерями
Размер потока                            : 81,8 Мбайт (5%)
Заголовок                                : Lord32x
Язык                                     : Russian
Default                                  : Да
Forced                                   : Да

Аудио #2
Идентификатор                            : 3
Формат                                   : AC-3
Формат/Информация                        : Audio Coding 3
Расширение режима                        : CM (complete main)
Идентификатор кодека                     : A_AC3
Продолжительность                        : 59 м.
Вид битрейта                             : Постоянный
Битрейт                                  : 192 Кбит/сек
Каналы                                   : 2 канала
Расположение каналов                     : Front: L R
Частота                                  : 48,0 КГц
Битовая глубина                          : 16 бит
Метод сжатия                             : С потерями
Размер потока                            : 81,8 Мбайт (5%)
Заголовок                                : Original
Язык                                     : English
Default                                  : Нет
Forced                                   : Нет

Текст
Идентификатор                            : 4
Формат                                   : UTF-8
Идентификатор кодека                     : S_TEXT/UTF8
Идентификатор кодека/Информация          : UTF-8 Plain Text
Заголовок                                : М.Васильев
Язык                                     : Russian
Default                                  : Нет
Forced                                   : Нет

Скриншоты:

Время раздачи:
Круглосуточно до 10 скачавших
   
Торрент: Зарегистрирован [19 янв 2016, 02:55] Скачать торрент
Скачать торрент
О MediaGet
[ Размер 15.88 КБ / Просмотров 105 ]

Статус:
 
Приватный: Нет (DHT включён)
Размер: 1.51 ГБ (1 625 974 462 байт)
   
Аватара пользователя

Администратор
Администратор
 
Раздал: 2.3 ПБ
Скачал: 1.01 ПБ
Ратио: 2.268
Сообщения: 2977
Зарегистрирован: 07 май 2010, 17:29
Medals: 1
Лучший релиз за месяц (1)
  • Личное сообщение
  • ICQ

  • Похожие торренты
    Ответы
    Просмотры
    Последнее сообщение

Вернуться в Фильмы 2016 (новинки)

Кто сейчас на конференции

Зарегистрированные пользователи: sergey_tr, ЗУРБАГАН

Ресурс не предоставляет электронные версии произведений, а занимается лишь коллекционированием и каталогизацией ссылок, присылаемых и публикуемых на форуме нашими читателями. Если вы являетесь правообладателем какого-либо представленного материала и не желаете чтобы ссылка на него находилась в нашем каталоге, свяжитесь с нами и мы незамедлительно удалим её. Файлы для обмена на трекере предоставлены пользователями сайта, и администрация не несёт ответственности за их содержание. Просьба не заливать файлы, защищенные авторскими правами, а также файлы нелегального содержания!
cron