Приключения Джо Грязнули 2 / Joe Dirt 2: Beautiful Loser (2015) HDRip [Extended cut]

Киноновинки, новинки кинопроката, горячие новинки

Модератор: Модераторы видео

  • Статистика раздачи
Размер: 1.37 ГБ   |  Зарегистрирован: 11 янв 2016, 21:43   |   .torrent скачан: 17 раз
Сидеров: 169  [ 0 байт/сек ]     Личеров: 3  [ 0 байт/сек ]  
Список файлов : Кто скачал : Раздают : Скачивают : Кто благодарил : История : Не раздающие : Запрашивали сидеров : Внешние трекеры 
  

Приключения Джо Грязнули 2 / Joe Dirt 2: Beautiful Loser (2015) HDRip [Extended cut]

Сообщение Админ » 11 янв 2016, 21:43

Приключения Джо Грязнули 2 / Joe Dirt 2: Beautiful Loser (2015) HDRip

Производство: США
Жанр: Комедия

Режиссер: Фред Вульф
Продюсер: Джейм Бурк, Эми С. Ким, Марк Бехар
Актеры: Дэвид Спейд, Бриттани Дэниэл, Патрик Варбертон, Марк МакГрат, Деннис Миллер, Кристофер Уокен, Тоби Бронсон, Рон Флагг, Ронда Дентс, Трэйси Вейсерт

Описание:
Когда счастливый семьянин Джо Грязнуля находит себя перенесенным в недавнее прошлое, он начинает эпическое путешествие, чтобы вернуться к своим близким в настоящее время.


Дата мировой премьеры: 16 июля 2015

Продолжительность: 01:48:27
Качество видео: HDRip
Перевод: Многоголосый закадровый, профессиональный (iTunes)

Видео: Xvid, 720x400, ~1393 kbps
Аудио: AC3, 6 ch, 384 kbps, CBR
Семпл: Скачать
Код:
Код: Выделить всё
Формат : AVI
Формат/Информация : Audio Video Interleave
Размер файла : 1,37 Гбайт
Продолжительность : 1 ч. 49 м.
Общий поток : 1786 Кбит/сек
Программа кодирования : VirtualDubMod 1.5.10.2 (build 2540/release)
Библиотека кодирования : VirtualDubMod build 2540/release

Видео
Идентификатор : 0
Формат : MPEG-4 Visual
Профиль формата : Advanced Simple@L5
Параметр BVOP формата : 2
Параметр QPel формата : Нет
Параметр GMC формата : Без точки перехода
Параметр матрицы формата : Default (MPEG)
Идентификатор кодека : XVID
Идентификатор кодека/Подсказка : XviD
Продолжительность : 1 ч. 49 м.
Битрейт : 1393 Кбит/сек
Ширина : 720 пикселей
Высота : 400 пикселей
Соотношение сторон : 16:9
Частота кадров : 23,976 кадра/сек
Цветовое пространство : YUV
Субдискретизация насыщенности : 4:2:0
Битовая глубина : 8 бит
Тип развёртки : Прогрессивная
Метод сжатия : С потерями
Бит/(Пиксели*Кадры) : 0.202
Размер потока : 1,07 Гбайт (78%)
Библиотека кодирования : XviD 1.2.1 (UTC 2008-12-04)

Аудио
Идентификатор : 1
Формат : AC-3
Формат/Информация : Audio Coding 3
Расширение режима : CM (complete main)
Параметр Endianness формата : Big
Идентификатор кодека : 2000
Продолжительность : 1 ч. 49 м.
Вид битрейта : Постоянный
Битрейт : 384 Кбит/сек
Каналы : 6 каналов
Расположение каналов : Front: L C R, Side: L R, LFE
Частота : 48,0 КГц
Метод сжатия : С потерями
Размер потока : 301 Мбайт (21%)
Выравнивание : Разделение по промежуткам
Продолжительность промежутка : 42 мс. (1,00 видеокадр)
Время предзагрузки промежутка : 500 мс.

Скриншоты:



Время раздачи: По мере возможности..
   
Торрент: Зарегистрирован [11 янв 2016, 21:43] Скачать торрент
Скачать торрент
О MediaGet
[ Размер 14.53 КБ / Просмотров 98 ]

Статус:
 
Приватный: Нет (DHT включён)
Размер: 1.37 ГБ (1 467 412 480 байт)
   
Аватара пользователя

Администратор
Администратор
 
Раздал: 2.29 ПБ
Скачал: 1.01 ПБ
Ратио: 2.266
Сообщения: 2960
Зарегистрирован: 07 май 2010, 17:29
Medals: 1
Лучший релиз за месяц (1)
  • Личное сообщение
  • ICQ

Вернуться в Фильмы 2016 (новинки)

Кто сейчас на конференции

Зарегистрированные пользователи: Starsnerus x 1

Ресурс не предоставляет электронные версии произведений, а занимается лишь коллекционированием и каталогизацией ссылок, присылаемых и публикуемых на форуме нашими читателями. Если вы являетесь правообладателем какого-либо представленного материала и не желаете чтобы ссылка на него находилась в нашем каталоге, свяжитесь с нами и мы незамедлительно удалим её. Файлы для обмена на трекере предоставлены пользователями сайта, и администрация не несёт ответственности за их содержание. Просьба не заливать файлы, защищенные авторскими правами, а также файлы нелегального содержания!
cron