Госпожа Америка / Mistress America (2015) HDRip

Киноновинки, новинки кинопроката, горячие новинки

Модератор: Модераторы видео

  • Статистика раздачи
Размер: 1.37 ГБ   |  Зарегистрирован: 09 янв 2016, 19:01   |   .torrent скачан: 12 раз
Сидеров: 494  [ 0 байт/сек ]     Личеров: 6  [ 0 байт/сек ]  
Список файлов : Кто скачал : Раздают : Скачивают : Кто благодарил : История : Не раздающие : Запрашивали сидеров : Внешние трекеры 
  

Госпожа Америка / Mistress America (2015) HDRip

Сообщение Админ » 09 янв 2016, 19:01

Госпожа Америка / Mistress America (2015) HDRip

Производство: США, Бразилия / Fox Searchlight Pictures, RT Features
Жанр: Комедия

Режиссер: Ноа Баумбак
Актеры: Сет Барриш, Джульетт Бретт, Андреа Чен, Майкл Чернус, Синди Чунг, Шена Даудесвелл, Кэтрин Эрбе, Клер Фоли, Джоэль Марш Гарлэнд, Грета Гервиг

Описание:
Трейси — одинокая студентка нью-йоркского колледжа. Ее жизнь скоро изменится благодаря будущей сводной сестре Брук, любящей приключения и втягивающей Трейси в сумасшедшие эскапады.



Продолжительность: 01:24:38
Качество видео: HDRip
Перевод: Любительский (двухголосый) (Parovoz Production)
Вид субтитров: отсутствуют
Реклама: Присутствуют голосовые и текстовые вставки рекламы.

Видео: Xvid, 720x384, ~1925 Кбит/сек
Аудио: AC3, 2 ch, 384 Кбит/сек, CBR
Код:
Код: Выделить всё
Общее
Полное имя                               : D:\films\Gospozha.America.HDRip.1400MB.avi
Формат                                   : AVI
Формат/Информация                        : Audio Video Interleave
Размер файла                             : 1,37 Гбайт
Продолжительность                        : 1 ч. 24 м.
Общий поток                              : 2319 Кбит/сек
Программа кодирования                    : VirtualDubMod 1.5.10.3 | [url=http://www.virtualdub-fr.org]www.virtualdub-fr.org[/url] || (build 2550/release)
Библиотека кодирования                   : VirtualDubMod build 2550/release

Видео
Идентификатор                            : 0
Формат                                   : MPEG-4 Visual
Профиль формата                          : Advanced Simple@L5
Параметр BVOP формата                    : 2
Параметр QPel формата                    : Нет
Параметр GMC формата                     : Без точки перехода
Параметр матрицы формата                 : Default (MPEG)
Идентификатор кодека                     : XVID
Идентификатор кодека/Подсказка           : XviD
Продолжительность                        : 1 ч. 24 м.
Битрейт                                  : 1925 Кбит/сек
Ширина                                   : 720 пикселей
Высота                                   : 384 пикселя
Соотношение сторон                       : 1,85:1
Частота кадров                           : 23,976 (24000/1001) кадра/сек
Цветовое пространство                    : YUV
Субдискретизация насыщенности            : 4:2:0
Битовая глубина                          : 8 бит
Тип развёртки                            : Прогрессивная
Метод сжатия                             : С потерями
Бит/(Пиксели*Кадры)                      : 0.290
Размер потока                            : 1,14 Гбайт (83%)
Библиотека кодирования                   : XviD 1.2.1 (UTC 2008-12-04)

Аудио
Идентификатор                            : 1
Формат                                   : AC-3
Формат/Информация                        : Audio Coding 3
Расширение режима                        : CM (complete main)
Параметр Endianness формата              : Big
Идентификатор кодека                     : 2000
Продолжительность                        : 1 ч. 24 м.
Вид битрейта                             : Постоянный
Битрейт                                  : 384 Кбит/сек
Каналы                                   : 2 канала
Расположение каналов                     : Front: L R
Частота                                  : 48,0 КГц
Частота кадров                           : 31,250 кадров/сек (1536 spf)
Метод сжатия                             : С потерями
Размер потока                            : 232 Мбайт (17%)
Выравнивание                             : Разделение по промежуткам
Продолжительность промежутка             : 42  мс. (1,00 видеокадр)
Время предзагрузки промежутка            : 500  мс.

Скриншоты:



Время раздачи: 24/7 (круглосуточно) до первых скачавших
   
Торрент: Зарегистрирован [09 янв 2016, 19:01] Скачать торрент
Скачать торрент
О MediaGet
[ Размер 14.4 КБ / Просмотров 69 ]

Статус:
 
Приватный: Нет (DHT включён)
Размер: 1.37 ГБ (1 471 875 072 байт)
   
Аватара пользователя

Администратор
Администратор
 
Раздал: 2.29 ПБ
Скачал: 1.01 ПБ
Ратио: 2.266
Сообщения: 2960
Зарегистрирован: 07 май 2010, 17:29
Medals: 1
Лучший релиз за месяц (1)
  • Личное сообщение
  • ICQ

Вернуться в Фильмы 2016 (новинки)

Кто сейчас на конференции

Зарегистрированные пользователи: Starsnerus x 1

Ресурс не предоставляет электронные версии произведений, а занимается лишь коллекционированием и каталогизацией ссылок, присылаемых и публикуемых на форуме нашими читателями. Если вы являетесь правообладателем какого-либо представленного материала и не желаете чтобы ссылка на него находилась в нашем каталоге, свяжитесь с нами и мы незамедлительно удалим её. Файлы для обмена на трекере предоставлены пользователями сайта, и администрация не несёт ответственности за их содержание. Просьба не заливать файлы, защищенные авторскими правами, а также файлы нелегального содержания!
cron