Я люблю Новый год (Ирония судьбы) / I love New Year (2015) DVDRip

Киноновинки, новинки кинопроката, горячие новинки

Модератор: Модераторы видео

  • Статистика раздачи
Размер: 2.06 ГБ   |  Зарегистрирован: 08 янв 2016, 21:36   |   .torrent скачан: 11 раз
Сидеров: 74  [ 0 байт/сек ]     Личеров: 20  [ 0 байт/сек ]  
Список файлов : Кто скачал : Раздают : Скачивают : Кто благодарил : История : Не раздающие : Запрашивали сидеров : Внешние трекеры 
  

Я люблю Новый год (Ирония судьбы) / I love New Year (2015) DVDRip

Сообщение Админ » 08 янв 2016, 21:36

Я люблю Новый год / I love New Year (2015) DVDRip

Производство: Индия
Жанр: Мелодрама

Режиссер: Радхика Рао и Винай Сапру
Актеры: Санни Деол, Кангана Ранаут, Навин Чоудхари, Танниша Чаттерджи, Прем Чопра

Описание:
Однажды 31 декабря Рандхир Сингх с друзьями пошел в баню... Ну, дальше вы знаете. На самом деле, он пошел в спортивный центр, но сауна там тоже была, и напились они так, как и положено по сюжету нашего культового фильма. Только отправили главного героя не из Москвы в Ленинград, а из Чикаго в Нью-Йорк. И адрес там 309 Вест, 7А. И заливной рыбы нет, и живет Рандхир не с мамой, а с папой... И еще кое-что по-другому... А в остальном - ну просто не отличить от нашей "Иронии судьбы".



Дата мировой премьеры: 10 июля 2015 года

Релиз от:
Продолжительность: 2:15:56
Качество видео: DVDRip
Перевод: Субтитры
Язык: Хинди
Автор перевода: Нари Асвена
Язык субтитров: Русский
Вид субтитров: Вшитые

Видео: Xvid, 720 x 304, ~1 706 Kbps, 29.970 fps
Аудио: AC3, 6 ch, 448Kbps, CBR
Код:
Код: Выделить всё
Расположение: D:\Торрент\готово\Ya.Liubliu.Novyi.God.2015.DVDRip.XviD.Bwtorrents.avi
Имя файла: Ya.Liubliu.Novyi.God.2015.DVDRip.XviD.Bwtorrents.avi
Формат файла: .avi (AVI)
Размер файла: 2.06 GB
Длительность: 2h 15mn
Навигация по главам: Нет
Битрейт (все потоки): 2 169 Kbps
Создан при помощи: VirtualDubMod 1.5.10.3 | [url=http://www.virtualdub-fr.org]www.virtualdub-fr.org[/url] || (build 2550/release)
Использовалась библиотека: VirtualDubMod build 2550/release
Обложка: Отсутствует

Название: Ya.Liubliu.Novyi.God.2015.DVDRip.XviD.Bwtorrents

Тип потока: Видео
Длительность: 02:15:56
Кодек: MPEG-4 Visual
Кодек/профиль: Advanced Simple@L5
Кодек/ID: XVID
Размеры изображения: 720 x 304 (2.35:1)
Частота кадров: 29.970 fps
Размер потока: 1.62 GiB (79%)
Битрейт: 1 706 Kbps
Метод сжатия: Lossy
Библиотека кодирования: XviD 1.2.1 (UTC 2008-12-04)
Цветовое пространство: YUV
Тип развёртки: Progressive
Колориметрия: 4:2:0
Глубина: 8 bits

Тип потока: Звук #1
Длительность: 02:15:56.288
Кодек: AC-3
Кодек/описание: Audio Coding 3
Кодек/ID: 2000
Частота дискретизации: 48.0 KHz
Каналов: 6 channels
Битрейт: 448 Kbps
Битрейт/тип: Constant
Размер потока: 436 MiB (21%)
Глубина: 16 bits
Метод сжатия: Lossy

Скриншоты:




Время раздачи: Круглосуточно
   
Торрент: Зарегистрирован [08 янв 2016, 21:36] Скачать торрент
Скачать торрент
О MediaGet
[ Размер 11.02 КБ / Просмотров 77 ]

Статус:
 
Приватный: Нет (DHT включён)
Размер: 2.06 ГБ (2 211 594 240 байт)
   
Аватара пользователя

Администратор
Администратор
 
Раздал: 2.29 ПБ
Скачал: 1.01 ПБ
Ратио: 2.266
Сообщения: 2960
Зарегистрирован: 07 май 2010, 17:29
Medals: 1
Лучший релиз за месяц (1)
  • Личное сообщение
  • ICQ

Вернуться в Фильмы 2016 (новинки)

Кто сейчас на конференции

Зарегистрированные пользователи: Starsnerus x 1

Ресурс не предоставляет электронные версии произведений, а занимается лишь коллекционированием и каталогизацией ссылок, присылаемых и публикуемых на форуме нашими читателями. Если вы являетесь правообладателем какого-либо представленного материала и не желаете чтобы ссылка на него находилась в нашем каталоге, свяжитесь с нами и мы незамедлительно удалим её. Файлы для обмена на трекере предоставлены пользователями сайта, и администрация не несёт ответственности за их содержание. Просьба не заливать файлы, защищенные авторскими правами, а также файлы нелегального содержания!
cron