Под водой / Submerged (2015) WEB-DLRip [VO]

Киноновинки, новинки кинопроката, горячие новинки

Модератор: Модераторы видео

  • Статистика раздачи
Размер: 1.37 ГБ   |  Зарегистрирован: 07 янв 2016, 00:32   |   .torrent скачан: 22 раз
Сидеров: 749  [ 0 байт/сек ]     Личеров: 33  [ 0 байт/сек ]  
Список файлов : Кто скачал : Раздают : Скачивают : Кто благодарил : История : Не раздающие : Запрашивали сидеров : Внешние трекеры 
  

Под водой / Submerged (2015) WEB-DLRip [VO]

Сообщение Админ » 07 янв 2016, 00:32

Под водой / Submerged (2015) WEB-DLRip

Производство: США
Жанр: Триллер, драма

Режиссер: Стивен С. Миллер
Актеры: Джонатан Беннетт, Талула Райли, Роза Салазар, Сэмюэл К. Хант, Коди Кристиан, Джиллз Мэттхи. Дензел Уитакер, Уилла Форд, Марио Ван Пиблз, Тим Дейли

Описание: Спасаясь от похитителей группа ребят падает с моста и погружается под воду в бронированном черном лимузине, в котором воздуха лишь на час...


Дата мировой премьеры: 27 ноября 2015

Продолжительность: 01:38:16
Качество видео: WEB-DLRip
Перевод: Любительский одноголосый (ХихиДок)
Субтитры: Отсутствуют

Видео: MPEG4, XviD, 720x304 (2.35:1), 23.976 fps, 1 792 Kbps (0.341 bit/pixel)
Аудио: MP3, 44.1 KHz, 2 ch, 192 Kbps, CBR
Код: Выделить всё
Общее
Полное имя                               : C:\NNM\Под водой\Pod vodoj 2015 WEB-DLRip.avi
Формат                                   : AVI
Формат/Информация                        : Audio Video Interleave
Размер файла                             : 1,37 Гбайт
Продолжительность                        : 1 ч. 38 м.
Общий поток                              : 1994 Кбит/сек
Программа кодирования                    : VirtualDubMod 1.5.10.3 (build 2550/release)
Библиотека кодирования                   : VirtualDubMod build 2550/release

Видео
Идентификатор                            : 0
Формат                                   : MPEG-4 Visual
Профиль формата                          : Advanced Simple@L5
Параметр BVOP формата                    : 2
Параметр QPel формата                    : Нет
Параметр GMC формата                     : Без точки перехода
Параметр матрицы формата                 : Выборочная
Идентификатор кодека                     : XVID
Идентификатор кодека/Подсказка           : XviD
Продолжительность                        : 1 ч. 38 м.
Битрейт                                  : 1792 Кбит/сек
Ширина                                   : 720 пикселей
Высота                                   : 304 пикселя
Соотношение сторон                       : 2,35:1
Частота кадров                           : 23,976 кадра/сек
Цветовое пространство                    : YUV
Субдискретизация насыщенности            : 4:2:0
Битовая глубина                          : 8 бит
Тип развёртки                            : Прогрессивная
Метод сжатия                             : С потерями
Бит/(Пиксели*Кадры)                      : 0.341
Размер потока                            : 1,23 Гбайт (90%)
Библиотека кодирования                   : XviD 1.2.1 (UTC 2008-12-04)

Аудио
Идентификатор                            : 1
Формат                                   : MPEG Audio
Версия формата                           : Version 1
Профиль формата                          : Layer 3
Идентификатор кодека                     : 55
Идентификатор кодека/Подсказка           : MP3
Продолжительность                        : 1 ч. 38 м.
Вид битрейта                             : Постоянный
Битрейт                                  : 192 Кбит/сек
Каналы                                   : 2 канала
Частота                                  : 44,1 КГц
Метод сжатия                             : С потерями
Размер потока                            : 135 Мбайт (10%)
Выравнивание                             : Разделение по промежуткам
Продолжительность промежутка             : 42  мс. (1,00 видеокадр)
Время предзагрузки промежутка            : 500  мс.

Скриншоты:

Время раздачи:
Круглосуточно до 10 скачавших
   
Торрент: Зарегистрирован [07 янв 2016, 00:32] Скачать торрент
Скачать торрент
О MediaGet
[ Размер 14.37 КБ / Просмотров 100 ]

Статус:
 
Приватный: Нет (DHT включён)
Размер: 1.37 ГБ (1 469 493 248 байт)
   
Аватара пользователя

Администратор
Администратор
 
Раздал: 2.29 ПБ
Скачал: 1.01 ПБ
Ратио: 2.266
Сообщения: 2960
Зарегистрирован: 07 май 2010, 17:29
Medals: 1
Лучший релиз за месяц (1)
  • Личное сообщение
  • ICQ

  • Похожие торренты
    Ответы
    Просмотры
    Последнее сообщение

Вернуться в Фильмы 2016 (новинки)

Кто сейчас на конференции

Зарегистрированные пользователи: Starsnerus x 1

Ресурс не предоставляет электронные версии произведений, а занимается лишь коллекционированием и каталогизацией ссылок, присылаемых и публикуемых на форуме нашими читателями. Если вы являетесь правообладателем какого-либо представленного материала и не желаете чтобы ссылка на него находилась в нашем каталоге, свяжитесь с нами и мы незамедлительно удалим её. Файлы для обмена на трекере предоставлены пользователями сайта, и администрация не несёт ответственности за их содержание. Просьба не заливать файлы, защищенные авторскими правами, а также файлы нелегального содержания!
cron