Наследники (2015) WEB-DL [H.264/720p-LQ]

Киноновинки, новинки кинопроката, горячие новинки

Модератор: Модераторы видео

  • Статистика раздачи
Размер: 1.98 ГБ   |  Зарегистрирован: 06 янв 2016, 16:37   |   .torrent скачан: 12 раз
Сидеров: 112  [ 0 байт/сек ]     Личеров: 3  [ 0 байт/сек ]  
Список файлов : Кто скачал : Раздают : Скачивают : Кто благодарил : История : Не раздающие : Запрашивали сидеров : Внешние трекеры 
  

Наследники (2015) WEB-DL [H.264/720p-LQ]

Сообщение Админ » 06 янв 2016, 16:37

Наследники (2015) WEB-DL [H.264/720p-LQ]

Производство: Россия, ДA-Cтудия, Рой
Жанр: Драма

Режиссер: Владимир Хотиненко
Продюсер: Владимир Хотиненко, Вера Малышева
Актеры: Леонид Бичевин, Александр Балуев, Анатолий Белый, Агриппина Стеклова, Александр Коротков, Алла Юганова, Наталья Курдюбова, Алексей Кирсанов, Сергей Качанов, Артур Мухамадияров

Описание:
Большая часть действия фильма происходит в студии ток-шоу, где политолог, патриот, попдива и другие персонажи во главе с ведущим обсуждают фигуру и наследие преподобного Сергия Радонежского. В разгар записи Ведущий неожиданно узнает, что его программу закрывают. Решив, что терять ему нечего, Ведущий идёт ва-банк и стремится прежде всего «разоблачить» — церковь, власть, своих собеседников… Но эффект оказывается совсем не тот, на который он рассчитывал. В пылу оживленной и даже яростной полемики мы начинаем прозревать подлинного Сергия Радонежского, а в эпизодах истории как в зеркале угадываем проблемы современной России…


Дата мировой премьеры: 19 сентября 2015
Дата премьеры в России: 5 ноября 2015, «Ливандия Энтертейнмент»

Продолжительность: 01:42:44
Качество видео: WEB-DL
Перевод: Не требуется (русский)
Вид субтитров: Отсутствуют
Реклама: Присутствуют голосовые и текстовые вставки рекламы.

Видео: AVC/H.264, 1280x532, ~2569 Kb/s
Аудио: AC3, 2 ch, 192 Kb/s
Код:
Код: Выделить всё
Общее
Уникальный идентификатор                 : 179077802416861846767008966692025720903 (0x86B921551CE5D79BB891138EE35CE047)
Полное имя                               : Наследники (2015).mkv
Формат                                   : Matroska
Версия формата                           : Version 4 / Version 2
Размер файла                             : 1,98 Гбайт
Продолжительность                        : 1 ч. 42 м.
Общий поток                              : 2755 Кбит/сек
Дата кодирования                         : UTC 2016-01-05 12:27:03
Программа кодирования                    : mkvmerge v8.7.0 ('All of the above') 64bit
Библиотека кодирования                   : libebml v1.3.3 + libmatroska v1.4.4

Видео
Идентификатор                            : 1
Формат                                   : AVC
Формат/Информация                        : Advanced Video Codec
Профиль формата                          : High@L4
Параметр CABAC формата                   : Да
Параметр ReFrames формата                : 4 кадра
Идентификатор кодека                     : V_MPEG4/ISO/AVC
Продолжительность                        : 1 ч. 42 м.
Битрейт                                  : 2569 Кбит/сек
Ширина                                   : 1280 пикселей
Высота                                   : 532 пикселя
Соотношение сторон                       : 2,40:1
Режим частоты кадров                     : Постоянный
Частота кадров                           : 25,000 кадров/сек
Цветовое пространство                    : YUV
Субдискретизация насыщенности            : 4:2:0
Битовая глубина                          : 8 бит
Тип развёртки                            : Прогрессивная
Бит/(Пиксели*Кадры)                      : 0.151
Размер потока                            : 1,80 Гбайт (91%)
Библиотека кодирования                   : x264 core 142
Настройки программы                      : cabac=1 / ref=3 / deblock=1:0:0 / analyse=0x3:0x113 / me=hex / subme=7 / psy=1 / psy_rd=1.00:0.00 / mixed_ref=1 / me_range=16 / chroma_me=1 / trellis=1 / 8x8dct=1 / cqm=0 / deadzone=21,11 / fast_pskip=1 / chroma_qp_offset=-2 / threads=48 / lookahead_threads=4 / sliced_threads=0 / nr=0 / decimate=1 / interlaced=0 / bluray_compat=0 / constrained_intra=0 / bframes=6 / b_pyramid=2 / b_adapt=1 / b_bias=0 / direct=1 / weightb=1 / open_gop=0 / weightp=2 / keyint=200 / keyint_min=20 / scenecut=0 / intra_refresh=0 / rc_lookahead=40 / rc=2pass / mbtree=1 / bitrate=2569 / ratetol=1.0 / qcomp=0.60 / qpmin=0 / qpmax=69 / qpstep=4 / cplxblur=20.0 / qblur=0.5 / vbv_maxrate=3854 / vbv_bufsize=10279 / nal_hrd=none / filler=0 / ip_ratio=1.40 / aq=1:1.00
Язык                                     : English
Default                                  : Да
Forced                                   : Нет

Аудио
Идентификатор                            : 2
Формат                                   : AC-3
Формат/Информация                        : Audio Coding 3
Расширение режима                        : CM (complete main)
Параметр Endianness формата              : Big
Идентификатор кодека                     : A_AC3
Продолжительность                        : 1 ч. 42 м.
Вид битрейта                             : Постоянный
Битрейт                                  : 192 Кбит/сек
Каналы                                   : 2 канала
Расположение каналов                     : Front: L R
Частота                                  : 48,0 КГц
Частота кадров                           : 31,250 кадров/сек (1536 spf)
Метод сжатия                             : С потерями
Размер потока                            : 141 Мбайт (7%)
Язык                                     : Russian
Default                                  : Да
Forced                                   : Нет

Текст
Идентификатор                            : 3
Формат                                   : UTF-8
Идентификатор кодека                     : S_TEXT/UTF8
Идентификатор кодека/Информация          : UTF-8 Plain Text
Default                                  : Да
Forced                                   : Нет

Скриншоты:



Время раздачи:
24/7. До первых 10 скачавших
   
Торрент: Зарегистрирован [06 янв 2016, 16:37] Скачать торрент
Скачать торрент
О MediaGet
[ Размер 20.46 КБ / Просмотров 74 ]

Статус:
 
Приватный: Нет (DHT включён)
Размер: 1.98 ГБ (2 123 192 208 байт)
   
Аватара пользователя

Администратор
Администратор
 
Раздал: 2.3 ПБ
Скачал: 1.01 ПБ
Ратио: 2.270
Сообщения: 2997
Зарегистрирован: 07 май 2010, 17:29
Medals: 1
Лучший релиз за месяц (1)
  • Личное сообщение
  • ICQ

  • Похожие торренты
    Ответы
    Просмотры
    Последнее сообщение

Вернуться в Фильмы 2016 (новинки)

Кто сейчас на конференции

Зарегистрированные пользователи: MOBILE666, Nolimit

Ресурс не предоставляет электронные версии произведений, а занимается лишь коллекционированием и каталогизацией ссылок, присылаемых и публикуемых на форуме нашими читателями. Если вы являетесь правообладателем какого-либо представленного материала и не желаете чтобы ссылка на него находилась в нашем каталоге, свяжитесь с нами и мы незамедлительно удалим её. Файлы для обмена на трекере предоставлены пользователями сайта, и администрация не несёт ответственности за их содержание. Просьба не заливать файлы, защищенные авторскими правами, а также файлы нелегального содержания!
cron