Ночные совы / Night Owls (2015) WEB-DLRip [VO]

Киноновинки, новинки кинопроката, горячие новинки

Модератор: Модераторы видео

  • Статистика раздачи
Размер: 1.29 ГБ   |  Зарегистрирован: 06 янв 2016, 04:31   |   .torrent скачан: 11 раз
Сидеров: 360  [ 0 байт/сек ]     Личеров: 55  [ 0 байт/сек ]  
Список файлов : Кто скачал : Раздают : Скачивают : Кто благодарил : История : Не раздающие : Запрашивали сидеров : Внешние трекеры 
  

Ночные совы / Night Owls (2015) WEB-DLRip [VO]

Сообщение Админ » 06 янв 2016, 04:31

Ночные совы / Night Owls (2015) WEB-DLRip

Производство: США / Haven Entertainment
Жанр: Драма, Комедия

Режиссер: Чарльз Худ
Актеры: Адам Палли, Роза Салазар, Роб Хюбель, Тони Хейл, Питер Краузе ...

Описание: Трудоголик Кевин после банкета оказывается в доме его босса с прекрасной Мадлен. Почему они оказались именно там и как не дать уснуть новой возлюбленной?


Дата мировой премьеры: 13 марта 2015

Продолжительность: 01:32:20
Качество видео: WEB-DLRip
Перевод: Любительский одноголосый (VANO)
Субтитры: Отсутствуют
Реклама: Присутствуют голосовые и текстовые вставки рекламы.

Видео: MPEG4, XviD, 720x304 (2.35:1), 23.976 fps, 1 798 Kbps (0.343 bit/pixel)
Аудио: AC-3, 48.0 KHz, 2 ch, 192 Kbps, CBR
Код: Выделить всё
Общее
Полное имя                               : C:\NNM\Ночные совы\Nochnye sovy 2015 WEB-DLRip.avi
Формат                                   : AVI
Формат/Информация                        : Audio Video Interleave
Размер файла                             : 1,29 Гбайт
Продолжительность                        : 1 ч. 32 м.
Общий поток                              : 1999 Кбит/сек
Программа кодирования                    : VirtualDubMod 1.5.10.3 | [url=http://www.virtualdub-fr.org]www.virtualdub-fr.org[/url] || (build 2550/release)
Библиотека кодирования                   : VirtualDubMod build 2550/release

Видео
Идентификатор                            : 0
Формат                                   : MPEG-4 Visual
Профиль формата                          : Advanced Simple@L5
Параметр BVOP формата                    : 2
Параметр QPel формата                    : Нет
Параметр GMC формата                     : Без точки перехода
Параметр матрицы формата                 : Default (MPEG)
Идентификатор кодека                     : XVID
Идентификатор кодека/Подсказка           : XviD
Продолжительность                        : 1 ч. 32 м.
Битрейт                                  : 1798 Кбит/сек
Ширина                                   : 720 пикселей
Высота                                   : 304 пикселя
Соотношение сторон                       : 2,35:1
Частота кадров                           : 23,976 кадра/сек
Цветовое пространство                    : YUV
Субдискретизация насыщенности            : 4:2:0
Битовая глубина                          : 8 бит
Тип развёртки                            : Прогрессивная
Метод сжатия                             : С потерями
Бит/(Пиксели*Кадры)                      : 0.343
Размер потока                            : 1,16 Гбайт (90%)
Библиотека кодирования                   : XviD 1.2.1 (UTC 2008-12-04)

Аудио
Идентификатор                            : 1
Формат                                   : AC-3
Формат/Информация                        : Audio Coding 3
Расширение режима                        : CM (complete main)
Идентификатор кодека                     : 2000
Продолжительность                        : 1 ч. 32 м.
Вид битрейта                             : Постоянный
Битрейт                                  : 192 Кбит/сек
Каналы                                   : 2 канала
Расположение каналов                     : Front: L R
Частота                                  : 48,0 КГц
Битовая глубина                          : 16 бит
Метод сжатия                             : С потерями
Размер потока                            : 127 Мбайт (10%)
Выравнивание                             : Разделение по промежуткам
Продолжительность промежутка             : 42  мс. (1,00 видеокадр)
Время предзагрузки промежутка            : 500  мс.

Скриншоты:


Время раздачи: Круглосуточно до 10 скачавших
   
Торрент: Зарегистрирован [06 янв 2016, 04:31] Скачать торрент
Скачать торрент
О MediaGet
[ Размер 13.59 КБ / Просмотров 69 ]

Статус:
 
Приватный: Нет (DHT включён)
Размер: 1.29 ГБ (1 384 611 840 байт)
   
Аватара пользователя

Администратор
Администратор
 
Раздал: 2.3 ПБ
Скачал: 1.01 ПБ
Ратио: 2.270
Сообщения: 2997
Зарегистрирован: 07 май 2010, 17:29
Medals: 1
Лучший релиз за месяц (1)
  • Личное сообщение
  • ICQ

  • Похожие торренты
    Ответы
    Просмотры
    Последнее сообщение

Вернуться в Фильмы 2016 (новинки)

Кто сейчас на конференции

Зарегистрированные пользователи: MOBILE666, Nolimit

Ресурс не предоставляет электронные версии произведений, а занимается лишь коллекционированием и каталогизацией ссылок, присылаемых и публикуемых на форуме нашими читателями. Если вы являетесь правообладателем какого-либо представленного материала и не желаете чтобы ссылка на него находилась в нашем каталоге, свяжитесь с нами и мы незамедлительно удалим её. Файлы для обмена на трекере предоставлены пользователями сайта, и администрация не несёт ответственности за их содержание. Просьба не заливать файлы, защищенные авторскими правами, а также файлы нелегального содержания!
cron