Любовь без обязательств / Sleeping with Other People (2015) HDRip

Киноновинки, новинки кинопроката, горячие новинки

Модератор: Модераторы видео

  • Статистика раздачи
Размер: 1.45 ГБ   |  Зарегистрирован: 06 янв 2016, 02:43   |   .torrent скачан: 7 раз
Сидеров: 221  [ 0 байт/сек ]     Личеров: 34  [ 0 байт/сек ]  
Список файлов : Кто скачал : Раздают : Скачивают : Кто благодарил : История : Не раздающие : Запрашивали сидеров : Внешние трекеры 
  

Любовь без обязательств / Sleeping with Other People (2015) HDRip

Сообщение Админ » 06 янв 2016, 02:43

Любовь без обязательств / Sleeping with Other People (2015) HDRip

Производство: США / Gloria Sanchez Productions, IM Global
Жанр: Комедия

Режиссер: Лесли Хэдланд
Продюсер: Джессика Элбаум, Уилл Феррелл, Сидни Киммел,
Актеры: Аманда Пит, Джейсон Судейкис, Элисон Бри, Джордан Карлос, Маргарита Левиева, Чарльз Кэйн, Адам Броди, Майкл Сирил Крейтон, Билли Айкнер, Джейсон Манцукас

Описание:
Джейк — дамский угодник, каких свет не видывал. Он с легкостью завоевывает женские сердца, а потом разбивает их. Лэйни — его полная противоположность, она еще со студенческих лет влюблена в одного и того же мужчину, но чем больше проходит времени, тем очевиднее становится, что с ним у нее нет будущего. У этих двоих есть одна романтическая история из прошлого. История, которая может помочь им изменить себя. Но для этого им придется придерживаться между собой исключительно дружеских отношений, ведь секс в их жизни все лишь усложнял. Смогут эти двое удержаться от соблазна и помочь друг другу?



Дата мировой премьеры: 24 января 2015
Дата премьеры в России: 10 декабря 2015

Продолжительность: 01:41:16
Качество видео: HDRip
Перевод: Дублированный (iTunes)
Вид субтитров: Отсутствуют

Видео: Xvid, 720x304, ~1664 kb/s
Аудио: AC3, 6 ch, 384 kb/s
Семпл: Скачать
Код:
Код: Выделить всё
Общее
Полное имя                               : Lubov.bez.obyazatelstv.2015.D.HDRip.1.46GB.nnm-club.avi
Формат                                   : AVI
Формат/Информация                        : Audio Video Interleave
Размер файла                             : 1,45 Гбайт
Продолжительность                        : 1 ч. 41 м.
Общий поток                              : 2057 Кбит/сек
Программа кодирования                    : VirtualDubMod 1.5.10.2 (build 2540/release)
Библиотека кодирования                   : VirtualDubMod build 2540/release

Видео
Идентификатор                            : 0
Формат                                   : MPEG-4 Visual
Профиль формата                          : Advanced Simple@L5
Параметр BVOP формата                    : 2
Параметр QPel формата                    : Нет
Параметр GMC формата                     : Без точки перехода
Параметр матрицы формата                 : Default (MPEG)
Идентификатор кодека                     : XVID
Идентификатор кодека/Подсказка           : XviD
Продолжительность                        : 1 ч. 41 м.
Битрейт                                  : 1664 Кбит/сек
Ширина                                   : 720 пикселей
Высота                                   : 304 пикселя
Соотношение сторон                       : 2,35:1
Частота кадров                           : 23,976 (24000/1001) кадра/сек
Цветовое пространство                    : YUV
Субдискретизация насыщенности            : 4:2:0
Битовая глубина                          : 8 бит
Тип развёртки                            : Прогрессивная
Метод сжатия                             : С потерями
Бит/(Пиксели*Кадры)                      : 0.317
Размер потока                            : 1,18 Гбайт (81%)
Библиотека кодирования                   : XviD 1.2.1 (UTC 2008-12-04)

Аудио
Идентификатор                            : 1
Формат                                   : AC-3
Формат/Информация                        : Audio Coding 3
Расширение режима                        : CM (complete main)
Параметр Endianness формата              : Big
Идентификатор кодека                     : 2000
Продолжительность                        : 1 ч. 41 м.
Вид битрейта                             : Постоянный
Битрейт                                  : 384 Кбит/сек
Каналы                                   : 6 каналов
Расположение каналов                     : Front: L C R, Side: L R, LFE
Частота                                  : 48,0 КГц
Частота кадров                           : 31,250 кадров/сек (1536 spf)
Метод сжатия                             : С потерями
Размер потока                            : 278 Мбайт (19%)
Выравнивание                             : Разделение по промежуткам
Продолжительность промежутка             : 42  мс. (1,00 видеокадр)
Время предзагрузки промежутка            : 500  мс.

Скриншоты:

   
Торрент: Зарегистрирован [06 янв 2016, 02:43] Скачать торрент
Скачать торрент
О MediaGet
[ Размер 15.4 КБ / Просмотров 99 ]

Статус:
 
Приватный: Нет (DHT включён)
Размер: 1.45 ГБ (1 562 200 064 байт)
   
Аватара пользователя

Администратор
Администратор
 
Раздал: 2.29 ПБ
Скачал: 1.01 ПБ
Ратио: 2.266
Сообщения: 2960
Зарегистрирован: 07 май 2010, 17:29
Medals: 1
Лучший релиз за месяц (1)
  • Личное сообщение
  • ICQ

  • Похожие торренты
    Ответы
    Просмотры
    Последнее сообщение

Вернуться в Фильмы 2016 (новинки)

Кто сейчас на конференции

Зарегистрированные пользователи: Starsnerus x 1

Ресурс не предоставляет электронные версии произведений, а занимается лишь коллекционированием и каталогизацией ссылок, присылаемых и публикуемых на форуме нашими читателями. Если вы являетесь правообладателем какого-либо представленного материала и не желаете чтобы ссылка на него находилась в нашем каталоге, свяжитесь с нами и мы незамедлительно удалим её. Файлы для обмена на трекере предоставлены пользователями сайта, и администрация не несёт ответственности за их содержание. Просьба не заливать файлы, защищенные авторскими правами, а также файлы нелегального содержания!
cron