Трамбо / Trumbo (2015) DVDScr

Киноновинки, новинки кинопроката, горячие новинки

Модератор: Модераторы видео

  • Статистика раздачи
Размер: 2.05 ГБ   |  Зарегистрирован: 03 янв 2016, 01:18   |   .torrent скачан: 2 раз
Сидеров: 668  [ 0 байт/сек ]     Личеров: 28  [ 0 байт/сек ]  
Список файлов : Кто скачал : Раздают : Скачивают : Кто благодарил : История : Не раздающие : Запрашивали сидеров : Внешние трекеры 
  

Трамбо / Trumbo (2015) DVDScr

Сообщение Админ » 03 янв 2016, 01:18

Трамбо / Trumbo (2015) DVDScr

Производство: США / Groundswell Productions, ShivHans Pictures
Жанр: Драма, Биография

Режиссер: Джей Роуч
Продюсер: Кевин Келли Браун, Моника Левинсон, Майкл Лондон
Актеры: Брайан Крэнстон, Дайан Лэйн, Хелен Миррен, Майкл Стулбарг, Дэвид Мальдонадо, Джон Гец, Лаура Флэннери, Дэвид Джеймс Эллиотт, Тоби Николс, Джозеф С. Мартино

Описание:
Далтон Трамбо, один из самых успешных голливудских сценаристов, автор «Римских каникул» и «Спартака», не подозревал, что черный список «Hollywood 10» реально существует, пока сам не попал туда и не был навсегда выкинут из жизни фабрики грез…


Дата мировой премьеры: 12 сентября 2015
Дата премьеры в России: 11 февраля 2016 «Парадиз»

Продолжительность: 02:04:09
Качество видео: DVDScr
Перевод: Двуголосый закадровый, любительский (Parovoz Production)

Видео: Xvid, 720x384, ~1963 Кбит/сек
Аудио: AC3, 2 ch, 384 Кбит/сек, CBR
Семпл: Скачать
Код:
Код: Выделить всё
Формат : AVI
Формат/Информация : Audio Video Interleave
Профиль формата : OpenDML
Размер файла : 2,05 Гбайт
Продолжительность : 2 ч. 4 м.
Общий поток : 2362 Кбит/сек
Программа кодирования : VirtualDubMod 1.5.10.3 | (build 2550/release)
Библиотека кодирования : VirtualDubMod build 2550/release

Видео
Идентификатор : 0
Формат : MPEG-4 Visual
Профиль формата : Advanced Simple@L5
Параметр BVOP формата : 2
Параметр QPel формата : Нет
Параметр GMC формата : Без точки перехода
Параметр матрицы формата : Default (MPEG)
Идентификатор кодека : XVID
Идентификатор кодека/Подсказка : XviD
Продолжительность : 2 ч. 4 м.
Битрейт : 1963 Кбит/сек
Ширина : 720 пикселей
Высота : 384 пикселя
Соотношение сторон : 1,85:1
Частота кадров : 29,970 кадров/сек
Цветовое пространство : YUV
Субдискретизация насыщенности : 4:2:0
Битовая глубина : 8 бит
Тип развёртки : Прогрессивная
Метод сжатия : С потерями
Бит/(Пиксели*Кадры) : 0.237
Размер потока : 1,71 Гбайт (83%)
Библиотека кодирования : XviD 1.2.1 (UTC 2008-12-04)

Аудио
Идентификатор : 1
Формат : AC-3
Формат/Информация : Audio Coding 3
Расширение режима : CM (complete main)
Параметр Endianness формата : Big
Идентификатор кодека : 2000
Продолжительность : 2 ч. 4 м.
Вид битрейта : Постоянный
Битрейт : 384 Кбит/сек
Каналы : 2 канала
Расположение каналов : Front: L R
Частота : 48,0 КГц
Метод сжатия : С потерями
Размер потока : 342 Мбайт (16%)
Выравнивание : Разделение по промежуткам
Продолжительность промежутка : 33 мс. (1,00 видеокадр)
Время предзагрузки промежутка : 500 мс.

Скриншоты:



Время раздачи: По мере возможности..
   
Торрент: Зарегистрирован [03 янв 2016, 01:18] Скачать торрент
Скачать торрент
О MediaGet
[ Размер 11.04 КБ / Просмотров 61 ]

Статус:
 
Приватный: Нет (DHT включён)
Размер: 2.05 ГБ (2 205 292 544 байт)
   
Аватара пользователя

Администратор
Администратор
 
Раздал: 2.3 ПБ
Скачал: 1.01 ПБ
Ратио: 2.270
Сообщения: 2997
Зарегистрирован: 07 май 2010, 17:29
Medals: 1
Лучший релиз за месяц (1)
  • Личное сообщение
  • ICQ

  • Похожие торренты
    Ответы
    Просмотры
    Последнее сообщение

Вернуться в Фильмы 2016 (новинки)

Кто сейчас на конференции

Зарегистрированные пользователи: MOBILE666, Nolimit

Ресурс не предоставляет электронные версии произведений, а занимается лишь коллекционированием и каталогизацией ссылок, присылаемых и публикуемых на форуме нашими читателями. Если вы являетесь правообладателем какого-либо представленного материала и не желаете чтобы ссылка на него находилась в нашем каталоге, свяжитесь с нами и мы незамедлительно удалим её. Файлы для обмена на трекере предоставлены пользователями сайта, и администрация не несёт ответственности за их содержание. Просьба не заливать файлы, защищенные авторскими правами, а также файлы нелегального содержания!
cron