Если не успеваете сами выполнить проект стоит заказать контрольную работу у профессионалов.

Марсианин / The Martian (2015) BDRip [H.264/1080p]

Киноновинки, новинки кинопроката, горячие новинки

Модератор: Модераторы видео

  • Статистика раздачи
Размер: 13.61 ГБ   |  Зарегистрирован: 02 янв 2016, 01:20   |   .torrent скачан: 34 раз
Сидеров: 795  [ 0 байт/сек ]     Личеров: 36  [ 0 байт/сек ]  
Список файлов : Кто скачал : Раздают : Скачивают : Кто благодарил : История : Не раздающие : Запрашивали сидеров : Внешние трекеры 
  

Марсианин / The Martian (2015) BDRip [H.264/1080p]

Сообщение Админ » 02 янв 2016, 01:20

Марсианин / The Martian (2015) BDRip [H.264/1080p]
«Верните его домой»

Производство: США, Великобритания / 20th Century Fox Film Corporation, Genre Films, International Traders
Жанр: фантастика, приключения

Режиссер: Ридли Скотт
Продюсер: Марк Хаффам, Саймон Кинберг, Майкл Шефер
Актеры: Мэтт Дэймон, Джессика Честейн, Чиветель Эджиофор, Кристен Уиг, Джефф Дэниелс, Майкл Пенья, Шон Бин, Кейт Мара, Себастьян Стэн, Аксель Хенни

Описание:
Марсианская миссия «Арес-3» в процессе работы была вынуждена экстренно покинуть планету из-за надвигающейся песчаной бури. Инженер и биолог Марк Уотни получил повреждение скафандра во время песчаной бури. Сотрудники миссии, посчитав его погибшим, эвакуировались с планеты, оставив Марка одного.
Очнувшись, Уотни обнаруживает, что связь с Землёй отсутствует, но при этом полностью функционирует жилой модуль. Главный герой начинает искать способ продержаться на имеющихся запасах еды, витаминов, воды и воздуха ещё 4 года до прилёта следующей миссии «Арес-4».


Рейтинг MPAA: PG-13 - детям до 13 лет просмотр не желателен
Дата мировой премьеры: 11 сентября 2015
Дата российской премьеры: 8 октября 2015, «Двадцатый Век Фокс СНГ» 3D

Релиз от: bluebird
Продолжительность: 02:21:51
Качество: BDRip 1080p
Перевод: Профессиональный (полное дублирование) (iTunes)
Вид субтитров: Вшитые, отключаемые
Язык субтитров: Русский, Украинский, Английский

Видео: MPEG-4 AVC/H.264, 1920x800, (2,40:1), 11650 kbps, 23.976 fps, 0.317 b/px
Аудио: AC3, 6 ch, 384 kbps - Русский
Аудио: AC3, 2 ch, 192 kbps - Украинский
Аудио: DTS, 6 ch, 1509 kbps - Английский
Код:
Код: Выделить всё
Общее
Уникальный идентификатор                 : 177980241379598481579683358044215022774 (0x85E5BF6537F7FED09AF682BFF7A394B6)
Полное имя                               : F:\The.Martian.2015.BDRip.1080p.mkv
Формат                                   : Matroska
Версия формата                           : Version 2
Размер файла                             : 13,6 Гбайт
Продолжительность                        : 2 ч. 21 м.
Общий поток                              : 13,8 Мбит/сек
Название фильма                          : BLUEBIRD
Дата кодирования                         : UTC 2015-12-30 16:10:35
Программа кодирования                    : mkvmerge v7.9.0 ('Birds') 64bit
Библиотека кодирования                   : libebml v1.3.1 + libmatroska v1.4.2

Видео
Идентификатор                            : 1
Формат                                   : AVC
Формат/Информация                        : Advanced Video Codec
Профиль формата                          :
Параметр CABAC формата                   : Да
Параметр ReFrames формата                : 5 кадров
Идентификатор кодека                     : V_MPEG4/ISO/AVC
Продолжительность                        : 2 ч. 21 м.
Битрейт                                  : 11,7 Мбит/сек
Ширина                                   : 1920 пикселей
Высота                                   : 800 пикселей
Соотношение сторон                       : 2,40:1
Режим частоты кадров                     : Постоянный
Частота кадров                           : 23,976 кадра/сек
Цветовое пространство                    : YUV
Субдискретизация насыщенности            : 4:2:0
Битовая глубина                          : 8 бит
Тип развёртки                            : Прогрессивная
Бит/(Пиксели*Кадры)                      : 0.317
Размер потока                            : 11,3 Гбайт (83%)
Заголовок                                : BLUEBIRD
Библиотека кодирования                   : x264 core 148 r2638 7599210
Настройки программы                      : cabac=1 / ref=5 / deblock=1:-3:-3 / analyse=0x3:0x33 / me=umh / subme=10 / psy=1 / psy_rd=1.00:0.00 / mixed_ref=1 / me_range=32 / chroma_me=1 / trellis=2 / 8x8dct=1 / cqm=0 / deadzone=21,11 / fast_pskip=0 / chroma_qp_offset=-2 / threads=12 / lookahead_threads=2 / sliced_threads=0 / nr=0 / decimate=0 / interlaced=0 / bluray_compat=0 / constrained_intra=0 / bframes=9 / b_pyramid=2 / b_adapt=2 / b_bias=0 / direct=3 / weightb=1 / open_gop=0 / weightp=2 / keyint=240 / keyint_min=23 / scenecut=40 / intra_refresh=0 / rc=2pass / mbtree=0 / bitrate=11675 / ratetol=1.0 / qcomp=0.60 / qpmin=0 / qpmax=69 / qpstep=4 / cplxblur=20.0 / qblur=0.5 / ip_ratio=1.40 / pb_ratio=1.30 / aq=3:0.90
Язык                                     : English
Default                                  : Да
Forced                                   : Нет

Аудио #1
Идентификатор                            : 2
Формат                                   : AC-3
Формат/Информация                        : Audio Coding 3
Расширение режима                        : CM (complete main)
Параметр Endianness формата              : Big
Идентификатор кодека                     : A_AC3
Продолжительность                        : 2 ч. 21 м.
Вид битрейта                             : Постоянный
Битрейт                                  : 384 Кбит/сек
Каналы                                   : 6 каналов
Расположение каналов                     : Front: L C R, Side: L R, LFE
Частота                                  : 48,0 КГц
Метод сжатия                             : С потерями
Размер потока                            : 389 Мбайт (3%)
Заголовок                                : iTunes
Язык                                     : Russian
Default                                  : Да
Forced                                   : Нет

Аудио #2
Идентификатор                            : 3
Формат                                   : AC-3
Формат/Информация                        : Audio Coding 3
Расширение режима                        : CM (complete main)
Параметр Endianness формата              : Big
Идентификатор кодека                     : A_AC3
Продолжительность                        : 2 ч. 21 м.
Вид битрейта                             : Постоянный
Битрейт                                  : 192 Кбит/сек
Каналы                                   : 2 канала
Расположение каналов                     : Front: L R
Частота                                  : 44,1 КГц
Метод сжатия                             : С потерями
Размер потока                            : 194 Мбайт (1%)
Заголовок                                : iTunes
Язык                                     : Ukrainian
Default                                  : Нет
Forced                                   : Нет

Аудио #3
Идентификатор                            : 4
Формат                                   : DTS
Формат/Информация                        : Digital Theater Systems
Режим                                    : 16
Параметр Endianness формата              : Big
Идентификатор кодека                     : A_DTS
Продолжительность                        : 2 ч. 21 м.
Вид битрейта                             : Постоянный
Битрейт                                  : 1509 Кбит/сек
Каналы                                   : 6 каналов
Расположение каналов                     : Front: L C R, Side: L R, LFE
Частота                                  : 48,0 КГц
Битовая глубина                          : 24 бит
Метод сжатия                             : С потерями
Размер потока                            : 1,49 Гбайт (11%)
Заголовок                                : English DTS Core 5.1 @1509 Kbps
Язык                                     : English
Default                                  : Нет
Forced                                   : Нет

Текст #1
Идентификатор                            : 5
Формат                                   : UTF-8
Идентификатор кодека                     : S_TEXT/UTF8
Идентификатор кодека/Информация          : UTF-8 Plain Text
Язык                                     : Russian
Default                                  : Да
Forced                                   : Нет

Текст #2
Идентификатор                            : 6
Формат                                   : UTF-8
Идентификатор кодека                     : S_TEXT/UTF8
Идентификатор кодека/Информация          : UTF-8 Plain Text
Язык                                     : Russian
Default                                  : Нет
Forced                                   : Нет

Текст #3
Идентификатор                            : 7
Формат                                   : UTF-8
Идентификатор кодека                     : S_TEXT/UTF8
Идентификатор кодека/Информация          : UTF-8 Plain Text
Язык                                     : Ukrainian
Default                                  : Нет
Forced                                   : Нет

Текст #4
Идентификатор                            : 8
Формат                                   : UTF-8
Идентификатор кодека                     : S_TEXT/UTF8
Идентификатор кодека/Информация          : UTF-8 Plain Text
Язык                                     : Ukrainian
Default                                  : Нет
Forced                                   : Нет

Текст #5
Идентификатор                            : 9
Формат                                   : UTF-8
Идентификатор кодека                     : S_TEXT/UTF8
Идентификатор кодека/Информация          : UTF-8 Plain Text
Язык                                     : English
Default                                  : Нет
Forced                                   : Нет

Меню
00:00:00.000                             : en:Chapter 01
00:03:22.285                             : en:Chapter 03
00:10:08.983                             : en:Chapter 05
00:15:24.590                             : en:Chapter 07
00:18:25.187                             : en:Chapter 09
00:21:34.376                             : en:Chapter 11
00:24:28.091                             : en:Chapter 13
00:28:52.689                             : en:Chapter 15
00:31:36.644                             : en:Chapter 17
00:34:21.100                             : en:Chapter 19
00:39:13.434                             : en:Chapter 21
00:41:21.770                             : en:Chapter 23
00:46:23.530                             : en:Chapter 25
00:49:25.087                             : en:Chapter 27
00:56:15.747                             : en:Chapter 29
00:59:40.493                             : en:Chapter 31
01:02:23.823                             : en:Chapter 33
01:06:53.134                             : en:Chapter 35
01:09:52.980                             : en:Chapter 37
01:13:51.301                             : en:Chapter 39
01:18:38.255                             : en:Chapter 41
01:22:52.467                             : en:Chapter 43
01:30:41.269                             : en:Chapter 45
01:37:30.094                             : en:Chapter 47
01:43:31.997                             : en:Chapter 49
01:46:16.286                             : en:Chapter 51
01:50:18.737                             : en:Chapter 53
01:54:07.966                             : en:Chapter 55
01:57:49.312                             : en:Chapter 57
02:04:41.682                             : en:Chapter 59
02:11:05.732                             : en:Chapter 61
02:13:28.792                             : en:Chapter 63
02:21:37.322                             : en:Chapter 64

Скриншоты:


Время раздачи: 24/7
   
Торрент: Зарегистрирован [02 янв 2016, 01:20] За каждые 2 ГБ. аплоада (сидирования) этого торрента начисляется бонус: 0.001 Скачать торрент
Скачать торрент
О MediaGet
[ Размер 68.76 КБ / Просмотров 155 ]

Статус:
 
Приватный: Нет (DHT включён)
Размер: 13.61 ГБ (14 615 376 484 байт)
   
Аватара пользователя

Администратор
Администратор
 
Раздал: 2.28 ПБ
Скачал: 1.01 ПБ
Ратио: 2.263
Сообщения: 2933
Зарегистрирован: 07 май 2010, 17:29
Medals: 1
Лучший релиз за месяц (1)
  • Личное сообщение
  • ICQ

  • Похожие торренты
    Ответы
    Просмотры
    Последнее сообщение

Вернуться в Фильмы 2016 (новинки)

Кто сейчас на конференции

Зарегистрированные пользователи: Dom_777, L Lawliet, Pashok11121147, styk, злодр, михалыч михалыч

Ресурс не предоставляет электронные версии произведений, а занимается лишь коллекционированием и каталогизацией ссылок, присылаемых и публикуемых на форуме нашими читателями. Если вы являетесь правообладателем какого-либо представленного материала и не желаете чтобы ссылка на него находилась в нашем каталоге, свяжитесь с нами и мы незамедлительно удалим её. Файлы для обмена на трекере предоставлены пользователями сайта, и администрация не несёт ответственности за их содержание. Просьба не заливать файлы, защищенные авторскими правами, а также файлы нелегального содержания!
cron