Командный пункт / War Room (2015) HDRip

Киноновинки, новинки кинопроката, горячие новинки

Модератор: Модераторы видео

  • Статистика раздачи
Размер: 1.45 ГБ   |  Зарегистрирован: 31 дек 2015, 01:31   |   .torrent скачан: 14 раз
Сидеров: 267  [ 0 байт/сек ]     Личеров: 3  [ 0 байт/сек ]  
Список файлов : Кто скачал : Раздают : Скачивают : Кто благодарил : История : Не раздающие : Запрашивали сидеров : Внешние трекеры 
  

Командный пункт / War Room (2015) HDRip

Сообщение Админ » 31 дек 2015, 01:31

Командный пункт / War Room (2015) HDRip

Производство: США
Жанр: Драма

Режиссер: Алекс Кендрик
Актеры: Присцилла Эванс Ширер, Т.С. Сталлингс, Карен Эберкромби, Бет Мур, Майкл мл., Джадин Харрис, Тинии Доунинг, Алена Питтс, Кэтлин Делинге

Описание:
Семейную пару Тони и Элизабет, преследуют неудачи в их супружеской жизни. Тони купается в лучах славы, предаваясь разным соблазнам, Элизабет чувствует себя брошенной и никому не нужной, это вынуждает ее замкнутся и уйти в себя, становясь все более агрессивной. Неожиданный поворот их жизни, происходит после встречи Элизабет с пожилой дамой, мисс Кларой...



Продолжительность: 01:59:53
Качество видео: HDRip
Перевод: Любительский (двухголосый, закадровый)
Автор перевода: Parovoz Production
Субтитры: Отсутствуют

Видео: Xvid, 720x304, ~1598 Кбит/с
Аудио: AC3, 2 ch, 128 Кбит/с, CBR
Семпл: Скачать
Код:
Код: Выделить всё
Общий поток                              : 1736 Кбит/сек
Программа кодирования                    : VirtualDubMod 1.5.10.2 (build 2542/release)
Библиотека кодирования                   : VirtualDubMod build 2542/release

Видео
Идентификатор                            : 0
Формат                                   : MPEG-4 Visual
Профиль формата                          : Advanced Simple@L5
Параметр BVOP формата                    : 2
Параметр QPel формата                    : Нет
Параметр GMC формата                     : Без точки перехода
Параметр матрицы формата                 : Default (MPEG)
Идентификатор кодека                     : XVID
Идентификатор кодека/Подсказка           : XviD
Продолжительность                        : 1 ч. 59 м.
Битрейт                                  : 1598 Кбит/сек
Ширина                                   : 720 пикселей
Высота                                   : 304 пикселя
Соотношение сторон                       : 2,35:1
Частота кадров                           : 23,976 кадра/сек
Цветовое пространство                    : YUV
Субдискретизация насыщенности            : 4:2:0
Битовая глубина                          : 8 бит
Тип развёртки                            : Прогрессивная
Метод сжатия                             : С потерями
Бит/(Пиксели*Кадры)                      : 0.305
Размер потока                            : 1,34 Гбайт (92%)
Библиотека кодирования                   : XviD 1.2.1 (UTC 2008-12-04)

Аудио
Идентификатор                            : 1
Формат                                   : AC-3
Формат/Информация                        : Audio Coding 3
Расширение режима                        : CM (complete main)
Параметр Endianness формата              : Big
Идентификатор кодека                     : 2000
Продолжительность                        : 1 ч. 59 м.
Вид битрейта                             : Постоянный
Битрейт                                  : 128 Кбит/сек
Каналы                                   : 2 канала
Расположение каналов                     : Front: L R
Частота                                  : 48,0 КГц
Метод сжатия                             : С потерями
Задержка видео                           : 17 мс.
Размер потока                            : 110 Мбайт (7%)
Выравнивание                             : Разделение по промежуткам
Продолжительность промежутка             : 42  мс. (1,00 видеокадр)
Время предзагрузки промежутка            : 500  мс.

Скриншоты:



Время раздачи: C 09:00 до 23:30 до 5 скачавших
   
Торрент: Зарегистрирован [31 дек 2015, 01:31] Скачать торрент
Скачать торрент
О MediaGet
[ Размер 15.32 КБ / Просмотров 91 ]

Статус:
 
Приватный: Нет (DHT включён)
Размер: 1.45 ГБ (1 560 915 968 байт)
   
Аватара пользователя

Администратор
Администратор
 
Раздал: 2.3 ПБ
Скачал: 1.01 ПБ
Ратио: 2.270
Сообщения: 2997
Зарегистрирован: 07 май 2010, 17:29
Medals: 1
Лучший релиз за месяц (1)
  • Личное сообщение
  • ICQ

  • Похожие торренты
    Ответы
    Просмотры
    Последнее сообщение

Вернуться в Фильмы 2016 (новинки)

Кто сейчас на конференции

Зарегистрированные пользователи: DenisKa2100, Dimkinzx, kilinbel, sergioksana, Starsnerus x 1

Ресурс не предоставляет электронные версии произведений, а занимается лишь коллекционированием и каталогизацией ссылок, присылаемых и публикуемых на форуме нашими читателями. Если вы являетесь правообладателем какого-либо представленного материала и не желаете чтобы ссылка на него находилась в нашем каталоге, свяжитесь с нами и мы незамедлительно удалим её. Файлы для обмена на трекере предоставлены пользователями сайта, и администрация не несёт ответственности за их содержание. Просьба не заливать файлы, защищенные авторскими правами, а также файлы нелегального содержания!
cron