Тупик / Standoff (2016) WEB-DLRip

Киноновинки, новинки кинопроката, горячие новинки

Модератор: Модераторы видео

  • Статистика раздачи
Размер: 1.43 ГБ   |  Зарегистрирован: 30 дек 2015, 03:17   |   .torrent скачан: 21 раз
Сидеров: 809  [ 0 байт/сек ]     Личеров: 132  [ 0 байт/сек ]  
Список файлов : Кто скачал : Раздают : Скачивают : Кто благодарил : История : Не раздающие : Запрашивали сидеров : Внешние трекеры 
  

Тупик / Standoff (2016) WEB-DLRip

Сообщение Админ » 30 дек 2015, 03:17

Тупик / Standoff (2016) WEB-DLRip

Производство: Goldrush Entertainment, First Point Entertainment, Maple Leaf Films
Жанр: Триллер

Режиссер: Адам Аллека
Продюсер: Тоув Кристенсен, Ли Клэй, Эрик Гозлан
Актеры: Томас Джейн, Лоренс Фишбёрн, Элла Бэллентайн, Джим Уотсон,
Джон Тенч, Лаура ДеКартере, Тед Атертон, Джоанна Дуглас

Описание:
Ветеран войны Картер с дробовиком наперевес вынужден защищать двенадцатилетнюю девочку, ставшую свидетелем убийства.


Рейтинг MPAA: R (лицам до 17 лет обязательно присутствие взрослого)
Дата мировой премьеры: 26 февраля 2016

Продолжительность: 01:26:03
Качество видео: WEB-DLRip
Перевод: Многоголосый закадровый, любительский
Озвучка / Автор перевода: Sunshine Studio & Parovoz Production
Субтитры: Отсутствуют

Видео: XviD, 720x304 (2.40:1), 23.976 fps, 1979 Kbps (0.377 bit/pixel)
Аудио #1: AC-3, 48.0 KHz, 2 ch, 192 Kbps, CBR (Русский)
Аудио #2: AC-3, 48.0 KHz, 2 ch, 192 Kbps, CBR (Английский)
Семпл: Скачать
Код:
Код: Выделить всё
Complete name                            : \Standoff.2016.WEB-DL.avi
Format                                   : AVI
Format/Info                              : Audio Video Interleave
File size                                : 1.43 GiB
Duration                                 : 1h 26mn
Overall bit rate                         : 2 378 Kbps
Writing application                      : VirtualDubMod 1.5.10.3 | (build 2550/release)
Writing library                          : VirtualDubMod build 2550/release

Video
ID                                       : 0
Format                                   : MPEG-4 Visual
Format profile                           : Simple@L5
Format settings, BVOP                    : No
Format settings, QPel                    : No
Format settings, GMC                     : No warppoints
Format settings, Matrix                  : Default (H.263)
Codec ID                                 : XVID
Codec ID/Hint                            : XviD
Duration                                 : 1h 26mn
Bit rate                                 : 1 979 Kbps
Width                                    : 720 pixels
Height                                   : 304 pixels
Display aspect ratio                     : 2.40:1
Frame rate                               : 23.976 fps
Color space                              : YUV
Chroma subsampling                       : 4:2:0
Bit depth                                : 8 bits
Scan type                                : Progressive
Compression mode                         : Lossy
Bits/(Pixel*Frame)                       : 0.377
Stream size                              : 1.19 GiB (83%)
Writing library                          : Lavc56.13.100

Audio #1
ID                                       : 1
Format                                   : AC-3
Format/Info                              : Audio Coding 3
Mode extension                           : CM (complete main)
Format settings, Endianness              : Big
Codec ID                                 : 2000
Duration                                 : 1h 26mn
Bit rate mode                            : Constant
Bit rate                                 : 192 Kbps
Channel(s)                               : 2 channels
Channel positions                        : Front: L R
Sampling rate                            : 48.0 KHz
Bit depth                                : 16 bits
Compression mode                         : Lossy
Stream size                              : 118 MiB (8%)
Alignment                                : Split accross interleaves
Interleave, duration                     : 42 ms (1.00 video frame)
Interleave, preload duration             : 500 ms

Audio #2
ID                                       : 2
Format                                   : AC-3
Format/Info                              : Audio Coding 3
Mode extension                           : CM (complete main)
Format settings, Endianness              : Big
Codec ID                                 : 2000
Duration                                 : 1h 26mn
Bit rate mode                            : Constant
Bit rate                                 : 192 Kbps
Channel(s)                               : 2 channels
Channel positions                        : Front: L R
Sampling rate                            : 48.0 KHz
Bit depth                                : 16 bits
Compression mode                         : Lossy
Stream size                              : 118 MiB (8%)
Alignment                                : Split accross interleaves
Interleave, duration                     : 42 ms (1.00 video frame)
Interleave, preload duration             : 500 ms

Скриншоты:


Все релизы
Тупик / Standoff (2016) на NNM-Club
Смотрите также другие мои раздачи
Время раздачи: С 08:00 до 23:00, до первых 10-ти скачавших
   
Торрент: Зарегистрирован [30 дек 2015, 03:17] Скачать торрент
Скачать торрент
О MediaGet
[ Размер 14.95 КБ / Просмотров 194 ]

Статус:
 
Приватный: Нет (DHT включён)
Размер: 1.43 ГБ (1 534 488 576 байт)
   
Аватара пользователя

Администратор
Администратор
 
Раздал: 2.28 ПБ
Скачал: 1.01 ПБ
Ратио: 2.263
Сообщения: 2933
Зарегистрирован: 07 май 2010, 17:29
Medals: 1
Лучший релиз за месяц (1)
  • Личное сообщение
  • ICQ

  • Похожие торренты
    Ответы
    Просмотры
    Последнее сообщение

Вернуться в Фильмы 2016 (новинки)

Кто сейчас на конференции

Зарегистрированные пользователи: Dom_777, L Lawliet, Pashok11121147, styk, злодр, михалыч михалыч

Ресурс не предоставляет электронные версии произведений, а занимается лишь коллекционированием и каталогизацией ссылок, присылаемых и публикуемых на форуме нашими читателями. Если вы являетесь правообладателем какого-либо представленного материала и не желаете чтобы ссылка на него находилась в нашем каталоге, свяжитесь с нами и мы незамедлительно удалим её. Файлы для обмена на трекере предоставлены пользователями сайта, и администрация не несёт ответственности за их содержание. Просьба не заливать файлы, защищенные авторскими правами, а также файлы нелегального содержания!
cron