Мой друг Дед Мороз / Le pere Noel (2014) HDRip

Киноновинки, новинки кинопроката, горячие новинки

Модератор: Модераторы видео

  • Статистика раздачи
Размер: 1.36 ГБ   |  Зарегистрирован: 30 дек 2015, 03:15   |   .torrent скачан: 2 раз
Сидеров: 257  [ 0 байт/сек ]     Личеров: 1  [ 0 байт/сек ]  
Список файлов : Кто скачал : Раздают : Скачивают : Кто благодарил : История : Не раздающие : Запрашивали сидеров : Внешние трекеры 
  

Мой друг Дед Мороз / Le pere Noel (2014) HDRip

Сообщение Админ » 30 дек 2015, 03:15

Мой друг Дед Мороз / Le pere Noel (2014) HDRip

Производство: Франция, Бельгия
Жанр: Комедия

Режиссер: Александр Коффре
Актеры: Тахар Рахим, Виктор Кабаль, Аннелиз Эм, Микаэль Абитбуль, Филипп Реббо, Амели Гленн, Жан Франсуа Кэйри, Джибрил Гуйе, Сатья Дюсаги

Описание:
В ночь на Рождество 6-летний Антуан загадал только одно желание – покататься в санях Санта-Клауса между звёзд, рассыпанных по небу. И тут, словно по мановению волшебной палочки, на балконе появляется Санта. Антуан был слишком удивлён, чтобы признать в нём бородатого грабителя, переодетого в новогодний костюм, который отправился по парижским квартирам в поисках богатств.


Дата мировой премьеры: 4 декабря 2014
Дата премьеры в России: 24 декабря 2015

Продолжительность: 01:18:11
Качество видео: HDRip
Перевод: Профессиональный многоголосый
Субтитры: Отсутствуют

Видео: MPEG4, XviD, 720x304 (2.35:1), 25.000 fps, 2 098 Kbps (0.383 bit/pixel)
Аудио: AC-3, 48.0 KHz, 6 ch, 384 Kbps, CBR
Код:
Код: Выделить всё
Общее
Полное имя                               : C:\NNM\Мой друг Дед Мороз\Moj drug DED 2014 HDRip.avi
Формат                                   : AVI
Формат/Информация                        : Audio Video Interleave
Размер файла                             : 1,36 Гбайт
Продолжительность                        : 1 ч. 18 м.
Общий поток                              : 2492 Кбит/сек
Программа кодирования                    : VirtualDubMod 1.5.10.3 | [url=http://www.virtualdub-fr.org]www.virtualdub-fr.org[/url] || (build 2550/release)
Библиотека кодирования                   : VirtualDubMod build 2550/release

Видео
Идентификатор                            : 0
Формат                                   : MPEG-4 Visual
Профиль формата                          : Advanced Simple@L5
Параметр BVOP формата                    : 2
Параметр QPel формата                    : Нет
Параметр GMC формата                     : Без точки перехода
Параметр матрицы формата                 : Default (MPEG)
Идентификатор кодека                     : XVID
Идентификатор кодека/Подсказка           : XviD
Продолжительность                        : 1 ч. 18 м.
Битрейт                                  : 2098 Кбит/сек
Ширина                                   : 720 пикселей
Высота                                   : 304 пикселя
Соотношение сторон                       : 2,35:1
Частота кадров                           : 25,000 кадров/сек
Цветовое пространство                    : YUV
Субдискретизация насыщенности            : 4:2:0
Битовая глубина                          : 8 бит
Тип развёртки                            : Прогрессивная
Метод сжатия                             : С потерями
Бит/(Пиксели*Кадры)                      : 0.383
Размер потока                            : 1,15 Гбайт (84%)
Библиотека кодирования                   : XviD 1.2.1 (UTC 2008-12-04)

Аудио
Идентификатор                            : 1
Формат                                   : AC-3
Формат/Информация                        : Audio Coding 3
Расширение режима                        : CM (complete main)
Идентификатор кодека                     : 2000
Продолжительность                        : 1 ч. 18 м.
Вид битрейта                             : Постоянный
Битрейт                                  : 384 Кбит/сек
Каналы                                   : 6 каналов
Расположение каналов                     : Front: L C R, Side: L R, LFE
Частота                                  : 48,0 КГц
Битовая глубина                          : 16 бит
Метод сжатия                             : С потерями
Размер потока                            : 215 Мбайт (15%)
Выравнивание                             : Разделение по промежуткам
Продолжительность промежутка             : 40  мс. (1,00 видеокадр)
Время предзагрузки промежутка            : 500  мс.

Скриншоты:
Время раздачи:
Круглосуточно до 10 скачавших
   
Торрент: Зарегистрирован [30 дек 2015, 03:15] Скачать торрент
Скачать торрент
О MediaGet
[ Размер 14.3 КБ / Просмотров 173 ]

Статус:
 
Приватный: Нет (DHT включён)
Размер: 1.36 ГБ (1 461 389 312 байт)
   
Аватара пользователя

Администратор
Администратор
 
Раздал: 2.28 ПБ
Скачал: 1.01 ПБ
Ратио: 2.263
Сообщения: 2933
Зарегистрирован: 07 май 2010, 17:29
Medals: 1
Лучший релиз за месяц (1)
  • Личное сообщение
  • ICQ

Вернуться в Фильмы 2016 (новинки)

Кто сейчас на конференции

Зарегистрированные пользователи: Dom_777, L Lawliet, Pashok11121147, styk, злодр, михалыч михалыч

Ресурс не предоставляет электронные версии произведений, а занимается лишь коллекционированием и каталогизацией ссылок, присылаемых и публикуемых на форуме нашими читателями. Если вы являетесь правообладателем какого-либо представленного материала и не желаете чтобы ссылка на него находилась в нашем каталоге, свяжитесь с нами и мы незамедлительно удалим её. Файлы для обмена на трекере предоставлены пользователями сайта, и администрация не несёт ответственности за их содержание. Просьба не заливать файлы, защищенные авторскими правами, а также файлы нелегального содержания!
cron