Плохие соседи по комнате / Bad Roomies (2015) WEB-DLRip

Киноновинки, новинки кинопроката, горячие новинки

Модератор: Модераторы видео

  • Статистика раздачи
Размер: 1.36 ГБ   |  Зарегистрирован: 30 дек 2015, 00:42   |   .torrent скачан: 3 раз
Сидеров: 143  [ 0 байт/сек ]     Личеров: 2  [ 0 байт/сек ]  
Список файлов : Кто скачал : Раздают : Скачивают : Кто благодарил : История : Не раздающие : Запрашивали сидеров : Внешние трекеры 
  

Плохие соседи по комнате / Bad Roomies (2015) WEB-DLRip

Сообщение Админ » 30 дек 2015, 00:42

Плохие соседи по комнате / Bad Roomies (2015) WEB-DLRip

Производство: США
Жанр: Комедия

Режиссер: Джейсон Шнель
Продюсер: Дуглас Матейка, Джастин Муни, Патрик Ренна
Актеры: Патрик Ренна, Томми Савас, Энни Монро, Джеки Тон, Пейдж Кеннеди, Кайл Ховард, Джорди Мастерсон, Кристофер Мастерсон, Линси Бартилсон, Эрик Памфри

Описание:
Когда у двух друзей, которые живут в одной квартире, освобождается лишняя комната, они решили найти себе нового соседа. К этому делу парни подошли ответственно и устроили настоящий кастинг. Желающих поселиться в их квартире было достаточно, но друзья остановились на симпатичной девушке. Этот выбор стал роковым. Ведь отныне их жизнь никогда не будет прежней. Оба друга без ума от новой соседки. Но на ком девушка остановит свой выбор?


Дата мировой премьеры: 1 декабря 2015

Продолжительность: 01:33:40
Качество видео: WEB-DLRip
Перевод: Двуголосый закадровый, любительский
Озвучка / Автор перевода: Parovoz Production
Субтитры: Отсутствуют

Видео: Xvid, 720x304, ~1935 Кбит/с
Аудио: AC3, 2 ch, 128 Кбит/с, CBR
Семпл: Скачать
Код:
Код: Выделить всё
Общее
Полное имя                               : D:\KINO 3\CASSETE DIGITIZED\Plohie.Sosedi.2015.avi
Формат                                   : AVI
Формат/Информация                        : Audio Video Interleave
Размер файла                             : 1,36 Гбайт
Продолжительность                        : 1 ч. 33 м.
Общий поток                              : 2073 Кбит/сек
Программа кодирования                    : VirtualDubMod 1.5.10.3 | [url=http://www.virtualdub-fr.org]www.virtualdub-fr.org[/url] || (build 2550/release)
Библиотека кодирования                   : VirtualDubMod build 2550/release

Видео
Идентификатор                            : 0
Формат                                   : MPEG-4 Visual
Профиль формата                          : Advanced Simple@L5
Параметр BVOP формата                    : 2
Параметр QPel формата                    : Нет
Параметр GMC формата                     : Без точки перехода
Параметр матрицы формата                 : Default (MPEG)
Идентификатор кодека                     : XVID
Идентификатор кодека/Подсказка           : XviD
Продолжительность                        : 1 ч. 33 м.
Битрейт                                  : 1935 Кбит/сек
Ширина                                   : 720 пикселей
Высота                                   : 304 пикселя
Соотношение сторон                       : 2,35:1
Частота кадров                           : 23,976 кадра/сек
Цветовое пространство                    : YUV
Субдискретизация насыщенности            : 4:2:0
Битовая глубина                          : 8 бит
Тип развёртки                            : Прогрессивная
Метод сжатия                             : С потерями
Бит/(Пиксели*Кадры)                      : 0.369
Размер потока                            : 1,27 Гбайт (93%)
Библиотека кодирования                   : XviD 1.2.1 (UTC 2008-12-04)

Аудио
Идентификатор                            : 1
Формат                                   : AC-3
Формат/Информация                        : Audio Coding 3
Расширение режима                        : CM (complete main)
Параметр Endianness формата              : Big
Идентификатор кодека                     : 2000
Продолжительность                        : 1 ч. 33 м.
Вид битрейта                             : Постоянный
Битрейт                                  : 128 Кбит/сек
Каналы                                   : 2 канала
Расположение каналов                     : Front: L R
Частота                                  : 48,0 КГц
Битовая глубина                          : 16 бит
Метод сжатия                             : С потерями
Задержка видео                           : 26 мс.
Размер потока                            : 85,8 Мбайт (6%)
Выравнивание                             : Разделение по промежуткам
Продолжительность промежутка             : 42  мс. (1,00 видеокадр)
Время предзагрузки промежутка            : 500  мс.

Скриншоты:



Время раздачи: С 09:00 до 23:30 до 5 скачавших
   
Торрент: Зарегистрирован [30 дек 2015, 00:42] Скачать торрент
Скачать торрент
О MediaGet
[ Размер 14.38 КБ / Просмотров 157 ]

Статус:
 
Приватный: Нет (DHT включён)
Размер: 1.36 ГБ (1 456 269 312 байт)
   
Аватара пользователя

Администратор
Администратор
 
Раздал: 2.3 ПБ
Скачал: 1.01 ПБ
Ратио: 2.270
Сообщения: 2997
Зарегистрирован: 07 май 2010, 17:29
Medals: 1
Лучший релиз за месяц (1)
  • Личное сообщение
  • ICQ

Вернуться в Фильмы 2016 (новинки)

Кто сейчас на конференции

Зарегистрированные пользователи: DenisKa2100, Dimkinzx, kilinbel, sergioksana, Starsnerus x 1

Ресурс не предоставляет электронные версии произведений, а занимается лишь коллекционированием и каталогизацией ссылок, присылаемых и публикуемых на форуме нашими читателями. Если вы являетесь правообладателем какого-либо представленного материала и не желаете чтобы ссылка на него находилась в нашем каталоге, свяжитесь с нами и мы незамедлительно удалим её. Файлы для обмена на трекере предоставлены пользователями сайта, и администрация не несёт ответственности за их содержание. Просьба не заливать файлы, защищенные авторскими правами, а также файлы нелегального содержания!
cron