Убойный огонек / Mi gran noche (2015) WEB-DL 720p | iTunes

Киноновинки, новинки кинопроката, горячие новинки

Модератор: Модераторы видео

  • Статистика раздачи
Размер: 3 ГБ   |  Зарегистрирован: 28 дек 2015, 18:53   |   .torrent скачан: 13 раз
Сидеров: 111  [ 0 байт/сек ]     Личеров: 2  [ 0 байт/сек ]  
Список файлов : Кто скачал : Раздают : Скачивают : Кто благодарил : История : Не раздающие : Запрашивали сидеров : Внешние трекеры 
  

Убойный огонек / Mi gran noche (2015) WEB-DL 720p | iTunes

Сообщение Админ » 28 дек 2015, 18:53

Информация о фильме
Название: Убойный огонек
Оригинальное название: Mi gran noche
Год выхода: 2015
Жанр: Комедия
Режиссер: Алекс де ла Иглесиа
В ролях: Рафаэль, Марио Касас, Пепон Ниэто, Бланка Суарес, Уго Сильва, Кармен Мачи, Луис Кальехо, Карлос Аресес, Энрике Вильен, Сантьяго Сегура
О фильме: Телезапись зрелищного «новогоднего огонька» оборачивается абсолютным сумасшествием, когда череда несчастных случаев обрушивается на съемочную площадку один за другим. Съемочный кран только что разгромил столик с массовкой… включая массовку. Одержимая фанатка шантажирует Адана, сексапильную сверх всякой меры поп-звезду. За легендарным певцом Альфонсо открывает вооруженную охоту сумасшедший автор песен. Один из актеров массовки, Хосе, пытает свое счастье с прекрасной Паломой, однако всех ее мужчин обычно преследуют беды. Тем временем снаружи разъяренная толпа требует ареста бесчестного продюсера шоу. В любой момент все окончательно выйдет из под контроля. Как всегда, «праздник» подкрался незаметно!

Выпущено: Испания / Canal Plus, Enrique Cerezo Producciones Cinematograficas S.A., Telefonica Studios, TVE
Продолжительность: 01:37:02
Озвучивание: Профессиональное (многоголосное) [iTunes]
Файл
Формат: MKV
Качество: WEB-DL 720p
Видео: MPEG-4 AVC, 3951 kb/s, 1280x540
Аудио: AC3, 384 kb/s (6 ch)

Format : Matroska
Format version : Version 4 / Version 2
File size : 3.00 GiB
Duration : 1h 37mn
Overall bit rate : 4 423 Kbps
Encoded date : UTC 2015-12-27 19:30:58
Writing application : mkvmerge v8.3.0 ('Over the Horizon') 64bit
Writing library : libebml v1.3.1 + libmatroska v1.4.2

Video
ID : 1
Format : AVC
Format/Info : Advanced Video Codec
Format profile : Main@L3.1
Format settings, CABAC : No
Format settings, ReFrames : 2 frames
Codec ID : V_MPEG4/ISO/AVC
Duration : 1h 37mn
Bit rate : 3 951 Kbps
Width : 1 280 pixels
Height : 540 pixels
Display aspect ratio : 2.40:1
Frame rate mode : Constant
Frame rate : 24.000 fps
Color space : YUV
Chroma subsampling : 4:2:0
Bit depth : 8 bits
Scan type : Progressive
Bits/(Pixel*Frame) : 0.238
Stream size : 2.68 GiB (89%)
Language : English
Default : Yes
Forced : No
Color range : Limited
Color primaries : BT.709
Transfer characteristics : BT.709
Matrix coefficients : BT.709

Audio
ID : 2
Format : AC-3
Format/Info : Audio Coding 3
Mode extension : CM (complete main)
Format settings, Endianness : Big
Codec ID : A_AC3
Duration : 1h 37mn
Bit rate mode : Constant
Bit rate : 384 Kbps
Channel(s) : 6 channels
Channel positions : Front: L C R, Side: L R, LFE
Sampling rate : 48.0 KHz
Bit depth : 16 bits
Compression mode : Lossy
Stream size : 267 MiB (9%)
Language : Russian
Default : Yes
Forced : No

Menu
00:00:00.000 : en:Глава 1
00:05:10.000 : en:Глава 2
00:11:52.000 : en:Глава 3
00:18:28.000 : en:Глава 4
00:23:49.000 : en:Глава 5
00:29:56.000 : en:Глава 6
00:35:41.000 : en:Глава 7
00:40:53.000 : en:Глава 8
00:46:39.000 : en:Глава 9
00:51:44.000 : en:Глава 10
00:57:05.000 : en:Глава 11
01:02:32.000 : en:Глава 12
01:08:21.000 : en:Глава 13
01:13:47.000 : en:Глава 14
01:19:33.000 : en:Глава 15
01:25:02.000 : en:Глава 16
01:30:23.000 : en:Глава 17








   
Торрент: Зарегистрирован [28 дек 2015, 18:53] Скачать торрент
Скачать торрент
О MediaGet
[ Размер 30.63 КБ / Просмотров 163 ]

Статус:
 
Приватный: Нет (DHT включён)
Размер: 3 ГБ (3 219 410 722 байт)
   
Аватара пользователя

Администратор
Администратор
 
Раздал: 2.29 ПБ
Скачал: 1.01 ПБ
Ратио: 2.266
Сообщения: 2977
Зарегистрирован: 07 май 2010, 17:29
Medals: 1
Лучший релиз за месяц (1)
  • Личное сообщение
  • ICQ

  • Похожие торренты
    Ответы
    Просмотры
    Последнее сообщение

Вернуться в Фильмы 2016 (новинки)

Кто сейчас на конференции

Зарегистрированные пользователи: sergey_tr, Starsnerus x 1, viRUSik

Ресурс не предоставляет электронные версии произведений, а занимается лишь коллекционированием и каталогизацией ссылок, присылаемых и публикуемых на форуме нашими читателями. Если вы являетесь правообладателем какого-либо представленного материала и не желаете чтобы ссылка на него находилась в нашем каталоге, свяжитесь с нами и мы незамедлительно удалим её. Файлы для обмена на трекере предоставлены пользователями сайта, и администрация не несёт ответственности за их содержание. Просьба не заливать файлы, защищенные авторскими правами, а также файлы нелегального содержания!
cron