Виктор Франкенштейн / Victor Frankenstein (2015) CamRip

Киноновинки, новинки кинопроката, горячие новинки

Модератор: Модераторы видео

  • Статистика раздачи
Размер: 1.47 ГБ   |  Зарегистрирован: 03 дек 2015, 21:36   |   .torrent скачан: 20 раз
Сидеров: 592  [ 0 байт/сек ]     Личеров: 321  [ 0 байт/сек ]  
Список файлов : Кто скачал : Раздают : Скачивают : Кто благодарил : История : Не раздающие : Запрашивали сидеров : Внешние трекеры 
  

Виктор Франкенштейн / Victor Frankenstein (2015) CamRip

Сообщение Админ » 03 дек 2015, 21:36

Виктор Франкенштейн / Victor Frankenstein (2015) CamRip

Производство: США, 20th Century Fox Film Corporation, TSG Entertainment, Moving Picture Company, Davis Entertainment
Жанр: Ужасы, Фантастика, Драма

Режиссер: Пол МакГиган
Продюсер: Джон Дэвис, Маири Бетт, Дерек Дочи
Актеры: Дэниэл Рэдклифф, Джессика Браун-Финдлэй, Бронсон Уэбб, Джеймс МакЭвой, Дэниэл Мейс, Спенсер Уидлинг, Робин Пирс, Эндрю Скотт, Каллум Тернер, Ди Ботчер

Описание:
Новый взгляд на фантастическую историю Виктора Франкенштейна, на этот раз — с точки зрения его помощника Игоря.



Рейтинг MPAA: PG-13
Возраст: 16+

Дата мировой премьеры: 10 ноября 2015
Дата премьеры в России: 26 ноября 2015, «Двадцатый Век Фокс СНГ»

Продолжительность: 01:43:17
Качество видео: CamRip
Перевод: Дублированный
Вид субтитров: Отсутствуют

Видео: XviD, 720x288, 1640 kb/s
Аудио: 48 kHz, AC3 Dolby Digital, 2/0 (L,R) ch, ~384 kbps
Семпл: Скачать
Код:
Код: Выделить всё
Общее
Полное имя                               : D:\Релизы\Виктор.Франкенштейн.2015.CamRip.nnm-club.avi
Формат                                   : AVI
Формат/Информация                        : Audio Video Interleave
Размер файла                             : 1,47 Гбайт
Продолжительность                        : 1 ч. 43 м.
Общий поток                              : 2035 Кбит/сек
Программа кодирования                    : VirtualDubMod 1.5.10.2 (build 2540/release)

Видео
Идентификатор                            : 0
Формат                                   : MPEG-4 Visual
Профиль формата                          : Advanced Simple@L5
Параметр BVOP формата                    : 2
Параметр QPel формата                    : Нет
Параметр GMC формата                     : Без точки перехода
Параметр матрицы формата                 : Default (H.263)
Идентификатор кодека                     : XVID
Идентификатор кодека/Подсказка           : XviD
Продолжительность                        : 1 ч. 43 м.
Битрейт                                  : 1640 Кбит/сек
Ширина                                   : 720 пикселей
Высота                                   : 288 пикселей
Соотношение сторон                       : 2,500
Частота кадров                           : 29,970 кадров/сек
Цветовое пространство                    : YUV
Субдискретизация насыщенности            : 4:2:0
Битовая глубина                          : 8 бит
Тип развёртки                            : Прогрессивная
Метод сжатия                             : С потерями
Бит/(Пиксели*Кадры)                      : 0.264
Размер потока                            : 1,18 Гбайт (81%)
Библиотека кодирования                   : XviD 73

Аудио
Идентификатор                            : 1
Формат                                   : AC-3
Формат/Информация                        : Audio Coding 3
Расширение режима                        : CM (complete main)
Параметр Endianness формата              : Big
Идентификатор кодека                     : 2000
Продолжительность                        : 1 ч. 43 м.
Вид битрейта                             : Постоянный
Битрейт                                  : 384 Кбит/сек
Каналы                                   : 2 канала
Расположение каналов                     : Front: L R
Частота                                  : 48,0 КГц
Метод сжатия                             : С потерями
Размер потока                            : 284 Мбайт (19%)
Выравнивание                             : Разделение по промежуткам
Продолжительность промежутка             : 33  мс. (1,00 видеокадр)
Время предзагрузки промежутка            : 500  мс.

Скриншоты:

Время раздачи: 24/7, до 5 скачавших.
   
Торрент: Зарегистрирован [03 дек 2015, 21:36] Скачать торрент
Скачать торрент
О MediaGet
[ Размер 15.42 КБ / Просмотров 110 ]

Статус:
 
Приватный: Нет (DHT включён)
Размер: 1.47 ГБ (1 576 984 576 байт)
   
Аватара пользователя

Администратор
Администратор
 
Раздал: 2.29 ПБ
Скачал: 1.01 ПБ
Ратио: 2.266
Сообщения: 2960
Зарегистрирован: 07 май 2010, 17:29
Medals: 1
Лучший релиз за месяц (1)
  • Личное сообщение
  • ICQ

  • Похожие торренты
    Ответы
    Просмотры
    Последнее сообщение

Вернуться в Фильмы 2016 (новинки)

Кто сейчас на конференции

Зарегистрированные пользователи: Starsnerus x 1

Ресурс не предоставляет электронные версии произведений, а занимается лишь коллекционированием и каталогизацией ссылок, присылаемых и публикуемых на форуме нашими читателями. Если вы являетесь правообладателем какого-либо представленного материала и не желаете чтобы ссылка на него находилась в нашем каталоге, свяжитесь с нами и мы незамедлительно удалим её. Файлы для обмена на трекере предоставлены пользователями сайта, и администрация не несёт ответственности за их содержание. Просьба не заливать файлы, защищенные авторскими правами, а также файлы нелегального содержания!
cron