Такси / Taxi (2015) WEB-DLRip

Киноновинки, новинки кинопроката, горячие новинки

Модератор: Модераторы видео

  • Статистика раздачи
Размер: 1.37 ГБ   |  Зарегистрирован: 03 дек 2015, 21:33   |   .torrent скачан: 2 раз
Сидеров: 815  [ 0 байт/сек ]     Личеров: 13  [ 0 байт/сек ]  
Список файлов : Кто скачал : Раздают : Скачивают : Кто благодарил : История : Не раздающие : Запрашивали сидеров : Внешние трекеры 
  

Такси / Taxi (2015) WEB-DLRip

Сообщение Админ » 03 дек 2015, 21:33

Такси / Taxi (2015) WEB-DLRip

Производство: Иран
Жанр: Комедия, Драма

Режиссер: Джафар Панахи
Продюсер: Джафар Панахи
Актеры: Джафар Панахи

Описание:
Желтое такси колесит по ярким и красочным улицам Тегерана. В такси садятся разнообразные пассажиры, каждый из которых искренне выражает свои взгляды во время беседы с водителем. А водителем является не кто иной, как сам режиссер фильма Джафар Панахи.


Дата мировой премьеры: 6 февраля 2015
Дата премьеры в России: 17 сентября 2015, «Артхаус»

Продолжительность: 01:21:07
Качество видео: WEB-DLRip
Перевод: Многоголосый закадровый, профессиональный
Озвучка / Автор перевода: iTunes
Вид субтитров: Отсутствуют

Видео: Xvid, 720x400, ~2017 Кбит/с
Аудио: AC3, 6 ch, 384 Кбит/с, CBR
Семпл: Скачать
Код:
Код: Выделить всё
Общее
Полное имя                               : D:\KINO 3\ARRANGED\Taksi.Iran.2015.avi
Формат                                   : AVI
Формат/Информация                        : Audio Video Interleave
Размер файла                             : 1,37 Гбайт
Продолжительность                        : 1 ч. 21 м.
Общий поток                              : 2410 Кбит/сек
Программа кодирования                    : VirtualDubMod 1.5.10.3 | (build 2550/release)
Библиотека кодирования                   : VirtualDubMod build 2550/release

Видео
Идентификатор                            : 0
Формат                                   : MPEG-4 Visual
Профиль формата                          : Advanced Simple@L5
Параметр BVOP формата                    : 2
Параметр QPel формата                    : Нет
Параметр GMC формата                     : Без точки перехода
Параметр матрицы формата                 : Default (MPEG)
Идентификатор кодека                     : XVID
Идентификатор кодека/Подсказка           : XviD
Продолжительность                        : 1 ч. 21 м.
Битрейт                                  : 2017 Кбит/сек
Ширина                                   : 720 пикселей
Высота                                   : 400 пикселей
Соотношение сторон                       : 16:9
Частота кадров                           : 24,000 кадра/сек
Цветовое пространство                    : YUV
Субдискретизация насыщенности            : 4:2:0
Битовая глубина                          : 8 бит
Тип развёртки                            : Прогрессивная
Метод сжатия                             : С потерями
Бит/(Пиксели*Кадры)                      : 0.292
Размер потока                            : 1,14 Гбайт (84%)
Библиотека кодирования                   : XviD 1.2.1 (UTC 2008-12-04)

Аудио
Идентификатор                            : 1
Формат                                   : AC-3
Формат/Информация                        : Audio Coding 3
Расширение режима                        : CM (complete main)
Параметр Endianness формата              : Big
Идентификатор кодека                     : 2000
Продолжительность                        : 1 ч. 21 м.
Вид битрейта                             : Постоянный
Битрейт                                  : 384 Кбит/сек
Каналы                                   : 6 каналов
Расположение каналов                     : Front: L C R, Side: L R, LFE
Частота                                  : 48,0 КГц
Битовая глубина                          : 16 бит
Метод сжатия                             : С потерями
Размер потока                            : 223 Мбайт (16%)
Выравнивание                             : Разделение по промежуткам
Продолжительность промежутка             : 42  мс. (1,00 видеокадр)
Время предзагрузки промежутка            : 500  мс.

Скриншоты:



Время раздачи: С 09:00 до 23:30 до 5 скачавших
   
Торрент: Зарегистрирован [03 дек 2015, 21:33] Скачать торрент
Скачать торрент
О MediaGet
[ Размер 14.42 КБ / Просмотров 60 ]

Статус:
 
Приватный: Нет (DHT включён)
Размер: 1.37 ГБ (1 466 523 648 байт)
   
Аватара пользователя

Администратор
Администратор
 
Раздал: 2.28 ПБ
Скачал: 1.01 ПБ
Ратио: 2.263
Сообщения: 2933
Зарегистрирован: 07 май 2010, 17:29
Medals: 1
Лучший релиз за месяц (1)
  • Личное сообщение
  • ICQ

  • Похожие торренты
    Ответы
    Просмотры
    Последнее сообщение

Вернуться в Фильмы 2016 (новинки)

Кто сейчас на конференции

Зарегистрированные пользователи: Dom_777, Kostya98, L Lawliet, Pashok11121147, styk, злодр, михалыч михалыч

Ресурс не предоставляет электронные версии произведений, а занимается лишь коллекционированием и каталогизацией ссылок, присылаемых и публикуемых на форуме нашими читателями. Если вы являетесь правообладателем какого-либо представленного материала и не желаете чтобы ссылка на него находилась в нашем каталоге, свяжитесь с нами и мы незамедлительно удалим её. Файлы для обмена на трекере предоставлены пользователями сайта, и администрация не несёт ответственности за их содержание. Просьба не заливать файлы, защищенные авторскими правами, а также файлы нелегального содержания!
cron