Ужастики / Goosebumps (2015) CAMRip | L1

Киноновинки, новинки кинопроката, горячие новинки

Модератор: Модераторы видео

  • Статистика раздачи
Размер: 1.37 ГБ   |  Зарегистрирован: 25 ноя 2015, 21:02   |   .torrent скачан: 1025 раз
Сидеров: 1081  [ 0 байт/сек ]     Личеров: 480  [ 0 байт/сек ]  
Список файлов : Кто скачал : Раздают : Скачивают : Кто благодарил : История : Не раздающие : Запрашивали сидеров : Внешние трекеры 
  

Ужастики / Goosebumps (2015) CAMRip | L1

Сообщение Админ » 25 ноя 2015, 21:03

Информация о фильме
Название: Ужастики
Оригинальное название: Goosebumps
Год выхода: 2015
Жанр: фэнтези, Комедия, приключения
Режиссер: Роб Леттерман
В ролях: Дилан Миннетт, Одейя Раш, Эми Райан, Райан Ли, Джиллиан Белл, Джек Блэк, Кен Марино, Холстон Сейдж, Стивен Крюгер, Кит А. Болден

О фильме: Зак переезжает с родителями в провинциальный городок, где знакомится с очаровательной соседкой Ханной. Он узнает, что ее отец — Роберт Стайн, знаменитый писатель, автор популярной серии триллеров для подростков «Ужастики», у которого есть мрачная тайна. Стайн — пленник собственных историй: монстры из его произведений вполне реальны, и он пишет свои книги для того, чтобы запереть чудовищ на их страницах, защищая своих читателей. По случайному стечению обстоятельств Зак выпускает монстров на волю…

Выпущено: США, Австралия / Columbia Pictures, LStar Capital, Original Film, Scholastic Entertainment, Sony Pictures Animation, Sony Pictures Entertainment (SPE), Village Roadshow Pictures
Продолжительность: 01:34:08
Озвучивание: Любительское (одноголосое) [VANO]

Файл
Формат: AVI (XviD)
Качество: CAMRip
Видео: MPEG4, XviD, 720x288 (2.500), 29.970 fps, 1 875 Kbps (0.302 bit/pixel)
Аудио: AC-3, 48.0 KHz, 2 ch, 192 Kbps, CBR
Размер: 1.37 GB
Скачать: Сэмпл

General
Complete name : G0oSebUm5s.2015.L1.CAMRip.avi
Format : AVI
Format/Info : Audio Video Interleave
File size : 1.37 GiB
Duration : 1h 34mn
Overall bit rate : 2 079 Kbps
Movie name : G0oSebUm5s.2015.L1.CAMRip
Writing application : VirtualDubMod 1.5.10.3 | www.virtualdub-fr.org || (build 2550/release)
Copyright : UNIONGANG&RUSTORRENTS

Video
ID : 0
Format : MPEG-4 Visual
Format profile : Advanced Simple@L5
Format settings, BVOP : 2
Format settings, QPel : No
Format settings, GMC : No warppoints
Format settings, Matrix : Default (MPEG)
Codec ID : XVID
Codec ID/Hint : XviD
Duration : 1h 34mn
Bit rate : 1 795 Kbps
Width : 720 pixels
Height : 288 pixels
Display aspect ratio : 2.500
Frame rate : 29.970 fps
Color space : YUV
Chroma subsampling : 4:2:0
Bit depth : 8 bits
Scan type : Progressive
Compression mode : Lossy
Bits/(Pixel*Frame) : 0.289
Stream size : 1.18 GiB (86%)
Writing library : XviD 1.2.1 (UTC 2008-12-04)

Audio
ID : 1
Format : AC-3
Format/Info : Audio Coding 3
Mode extension : CM (complete main)
Format settings, Endianness : Big
Codec ID : 2000
Duration : 1h 34mn
Bit rate mode : Constant
Bit rate : 192 Kbps
Channel(s) : 2 channels
Channel positions : Front: L R
Sampling rate : 48.0 KHz
Bit depth : 16 bits
Compression mode : Lossy
Stream size : 129 MiB (9%)
Alignment : Split accross interleaves




   
Торрент: Зарегистрирован [25 ноя 2015, 21:02] Скачать торрент
Скачать торрент
О MediaGet
[ Размер 14.34 КБ / Просмотров 114 ]

Статус:
 
Приватный: Нет (DHT включён)
Размер: 1.37 ГБ (1 467 543 552 байт)
   
Аватара пользователя

Администратор
Администратор
 
Раздал: 2.28 ПБ
Скачал: 1.01 ПБ
Ратио: 2.263
Сообщения: 2933
Зарегистрирован: 07 май 2010, 17:29
Medals: 1
Лучший релиз за месяц (1)
  • Личное сообщение
  • ICQ

  • Похожие торренты
    Ответы
    Просмотры
    Последнее сообщение

Вернуться в Фильмы 2016 (новинки)

Кто сейчас на конференции

Зарегистрированные пользователи: Dom_777, L Lawliet, Pashok11121147, styk, злодр, михалыч михалыч

Ресурс не предоставляет электронные версии произведений, а занимается лишь коллекционированием и каталогизацией ссылок, присылаемых и публикуемых на форуме нашими читателями. Если вы являетесь правообладателем какого-либо представленного материала и не желаете чтобы ссылка на него находилась в нашем каталоге, свяжитесь с нами и мы незамедлительно удалим её. Файлы для обмена на трекере предоставлены пользователями сайта, и администрация не несёт ответственности за их содержание. Просьба не заливать файлы, защищенные авторскими правами, а также файлы нелегального содержания!
cron