Уроки вождения / Learning to Drive (2014) HDRip [VO]

Киноновинки, новинки кинопроката, горячие новинки

Модератор: Модераторы видео

  • Статистика раздачи
Размер: 1.37 ГБ   |  Зарегистрирован: 22 ноя 2015, 22:38   |   .torrent скачан: 4 раз
Сидеров: 142  [ 0 байт/сек ]     Личеров: 15  [ 0 байт/сек ]  
Список файлов : Кто скачал : Раздают : Скачивают : Кто благодарил : История : Не раздающие : Запрашивали сидеров : Внешние трекеры 
  

Уроки вождения / Learning to Drive (2014) HDRip [VO]

Сообщение Админ » 22 ноя 2015, 22:35

Уроки вождения / Learning to Drive (2014) HDRip

Производство: Великобритания, США
Жанр: Драма, Мелодрама, Комедия

Режиссер: Изабель Койшет
Продюсер: Дана Фридман, Дэниэл Хэммонд, Елени Асвеста
Актеры: Бен Кингсли, Патришия Кларксон, Грэйс Гаммер, Джейк Уэбер, Сарита Чоудри, Джон Ходжмэн, Даниэла Лавендер, Саманта Би, Мэтт Сэлинджер, Эви Нэш

Описание:
После того, как брак писательницы из Манхеттена распадается, она берет уроки вождения у инструктора по имени Сикх, который недавно развелся с женой. Общая проблема позволит им найти в себе силы и мужество, чтобы вернуться на дорогу и сесть за руль.


Дата мировой премьеры: 9 сентября 2014

Продолжительность: 01:29:39
Качество видео: HDRip
Перевод: Одноголосый закадровый, любительский
Озвучка / Автор перевода: VANO
Вид субтитров: Отсутствуют

Видео: Xvid, 720x384, ~1917 kbps
Аудио: AC3, 2 ch, 256 kbps, CBR
Семпл: Скачать
Код:
Код: Выделить всё
Общее
Полное имя                               : Learning.to.Drive.2014.L1.HDRip.avi
Формат                                   : AVI
Формат/Информация                        : Audio Video Interleave
Размер файла                             : 1,37 Гбайт
Продолжительность                        : 1 ч. 29 м.
Общий поток                              : 2182 Кбит/сек
Название фильма                          : Learning.to.Drive.2014.L1.HDRip
Программа кодирования                    : VirtualDubMod 1.5.10.3 |  (build 2550/release)
Формат оригинала/Имя                     : Movie

Видео
Идентификатор                            : 0
Формат                                   : MPEG-4 Visual
Профиль формата                          : Advanced Simple@L5
Параметр BVOP формата                    : 2
Параметр QPel формата                    : Нет
Параметр GMC формата                     : Без точки перехода
Параметр матрицы формата                 : Default (MPEG)
Идентификатор кодека                     : XVID
Идентификатор кодека/Подсказка           : XviD
Продолжительность                        : 1 ч. 29 м.
Битрейт                                  : 1917 Кбит/сек
Ширина                                   : 720 пикселей
Высота                                   : 384 пикселя
Соотношение сторон                       : 1,85:1
Частота кадров                           : 24,000 кадра/сек
Цветовое пространство                    : YUV
Субдискретизация насыщенности            : 4:2:0
Битовая глубина                          : 8 бит
Тип развёртки                            : Прогрессивная
Метод сжатия                             : С потерями
Бит/(Пиксели*Кадры)                      : 0.289
Размер потока                            : 1,20 Гбайт (88%)
Библиотека кодирования                   : XviD 1.2.1 (UTC 2008-12-04)

Аудио
Идентификатор                            : 1
Формат                                   : AC-3
Формат/Информация                        : Audio Coding 3
Расширение режима                        : CM (complete main)
Параметр Endianness формата              : Big
Идентификатор кодека                     : 2000
Продолжительность                        : 1 ч. 29 м.
Вид битрейта                             : Постоянный
Битрейт                                  : 256 Кбит/сек
Каналы                                   : 2 канала
Расположение каналов                     : Front: L R
Частота                                  : 48,0 КГц
Метод сжатия                             : С потерями
Размер потока                            : 164 Мбайт (12%)
Выравнивание                             : Разделение по промежуткам
Продолжительность промежутка             : 42  мс. (1,00 видеокадр)
Время предзагрузки промежутка            : 500  мс.

Скриншоты:



Время раздачи: 24/7 (круглосуточно)
   
Торрент: Зарегистрирован [22 ноя 2015, 22:38] Скачать торрент
Скачать торрент
О MediaGet
[ Размер 14.57 КБ / Просмотров 58 ]

Статус:
 
Приватный: Нет (DHT включён)
Размер: 1.37 ГБ (1 467 437 056 байт)
   
Аватара пользователя

Администратор
Администратор
 
Раздал: 2.28 ПБ
Скачал: 1.01 ПБ
Ратио: 2.263
Сообщения: 2933
Зарегистрирован: 07 май 2010, 17:29
Medals: 1
Лучший релиз за месяц (1)
  • Личное сообщение
  • ICQ

  • Похожие торренты
    Ответы
    Просмотры
    Последнее сообщение

Вернуться в Фильмы 2016 (новинки)

Кто сейчас на конференции

Зарегистрированные пользователи: Dom_777, L Lawliet, Pashok11121147, styk, злодр, михалыч михалыч

Ресурс не предоставляет электронные версии произведений, а занимается лишь коллекционированием и каталогизацией ссылок, присылаемых и публикуемых на форуме нашими читателями. Если вы являетесь правообладателем какого-либо представленного материала и не желаете чтобы ссылка на него находилась в нашем каталоге, свяжитесь с нами и мы незамедлительно удалим её. Файлы для обмена на трекере предоставлены пользователями сайта, и администрация не несёт ответственности за их содержание. Просьба не заливать файлы, защищенные авторскими правами, а также файлы нелегального содержания!
cron