Преступная деятельность / Criminal Activities (2015) WEB-DL 720p | L1

Киноновинки, новинки кинопроката, горячие новинки

Модератор: Модераторы видео

  • Статистика раздачи
Размер: 3.04 ГБ   |  Зарегистрирован: 22 ноя 2015, 00:16   |   .torrent скачан: 4928 раз
Сидеров: 2213  [ 0 байт/сек ]     Личеров: 288  [ 0 байт/сек ]  
Список файлов : Кто скачал : Раздают : Скачивают : Кто благодарил : История : Не раздающие : Запрашивали сидеров : Внешние трекеры 
  

Преступная деятельность / Criminal Activities (2015) WEB-DL 720p | L1

Сообщение Админ » 22 ноя 2015, 00:16

Информация о фильме
Название: Преступная деятельность
Оригинальное название: Criminal Activities
Год выхода: 2015
Жанр: триллер, драма, криминал
Режиссер: Джеки Эрл Хейли
В ролях: Дэн Стивенс, Джон Траволта, Джеки Эрл Хейли, Майкл Питт, Эди Гатеги, Кристофер Эбботт, Роб Браун, Лиза Катара, Трэвис Аарон, Морган Волк
О фильме: Четверо молодых людей инвестировали деньги в рискованное дело, которое приводит их к конфликту с мафией.

Выпущено: США / Capacity Pictures, May Day Movies, NeeNee Productions, Phoenix Rising Motion Pictures, Producer Capital Fund
Продолжительность: 01:33:53
Озвучивание: Любительское (одноголосое) [VANO]
Файл
Формат: MKV
Качество: WEB-DL 720p
Видео: MPEG-4 AVC, 3898 kb/s, 1280x530
Аудио: Russian: AC3, 256 kb/s (2 ch) / English: AC3, 384 kb/s (6 ch)
Субтитры: English
Format : Matroska
Format version : Version 2
File size : 3.04 GiB
Duration : 1h 33mn
Overall bit rate : 4 630 Kbps
Encoded date : UTC 2015-11-21 15:22:48
Writing application : mkvmerge v7.8.0 ('River Man') 32bit built on Apr 3 2015 12:11:22
Writing library : libebml v1.3.1 + libmatroska v1.4.2

Video
ID : 1
Format : AVC
Format/Info : Advanced Video Codec
Format profile : Main@L3.1
Format settings, CABAC : No
Format settings, ReFrames : 2 frames
Codec ID : V_MPEG4/ISO/AVC
Duration : 1h 33mn
Bit rate : 3 898 Kbps
Width : 1 280 pixels
Height : 530 pixels
Display aspect ratio : 2.40:1
Frame rate mode : Constant
Frame rate : 23.976 fps
Color space : YUV
Chroma subsampling : 4:2:0
Bit depth : 8 bits
Scan type : Progressive
Bits/(Pixel*Frame) : 0.240
Stream size : 2.56 GiB (84%)
Language : English
Default : Yes
Forced : No
Color range : Limited
Color primaries : BT.709
Transfer characteristics : BT.709
Matrix coefficients : BT.709

Audio #1
ID : 2
Format : AC-3
Format/Info : Audio Coding 3
Mode extension : CM (complete main)
Format settings, Endianness : Big
Codec ID : A_AC3
Duration : 1h 33mn
Bit rate mode : Constant
Bit rate : 256 Kbps
Channel(s) : 2 channels
Channel positions : Front: L R
Sampling rate : 48.0 KHz
Bit depth : 16 bits
Compression mode : Lossy
Stream size : 172 MiB (6%)
Language : Russian
Default : Yes
Forced : No

Audio #2
ID : 3
Format : AC-3
Format/Info : Audio Coding 3
Mode extension : CM (complete main)
Format settings, Endianness : Big
Codec ID : A_AC3
Duration : 1h 33mn
Bit rate mode : Constant
Bit rate : 384 Kbps
Channel(s) : 6 channels
Channel positions : Front: L C R, Side: L R, LFE
Sampling rate : 48.0 KHz
Bit depth : 16 bits
Compression mode : Lossy
Stream size : 258 MiB (8%)
Language : English
Default : No
Forced : No

Text
ID : 4
Format : UTF-8
Codec ID : S_TEXT/UTF8
Codec ID/Info : UTF-8 Plain Text
Language : English
Default : No
Forced : No

Menu
00:00:00.000 : en:1
00:10:20.000 : en:2
00:20:31.000 : en:3
00:32:00.000 : en:4
00:39:07.000 : en:5
00:49:22.000 : en:6
00:59:23.000 : en:7
01:12:09.000 : en:8
01:20:03.000 : en:9
01:29:46.000 : en:10







   
Торрент: Зарегистрирован [22 ноя 2015, 00:16] Скачать торрент
Скачать торрент
О MediaGet
[ Размер 15.87 КБ / Просмотров 79 ]

Статус:
 
Приватный: Нет (DHT включён)
Размер: 3.04 ГБ (3 260 882 037 байт)
   
Аватара пользователя

Администратор
Администратор
 
Раздал: 2.29 ПБ
Скачал: 1.01 ПБ
Ратио: 2.266
Сообщения: 2977
Зарегистрирован: 07 май 2010, 17:29
Medals: 1
Лучший релиз за месяц (1)
  • Личное сообщение
  • ICQ

Вернуться в Фильмы 2016 (новинки)

Кто сейчас на конференции

Зарегистрированные пользователи: sergey_tr, Starsnerus x 1, viRUSik

Ресурс не предоставляет электронные версии произведений, а занимается лишь коллекционированием и каталогизацией ссылок, присылаемых и публикуемых на форуме нашими читателями. Если вы являетесь правообладателем какого-либо представленного материала и не желаете чтобы ссылка на него находилась в нашем каталоге, свяжитесь с нами и мы незамедлительно удалим её. Файлы для обмена на трекере предоставлены пользователями сайта, и администрация не несёт ответственности за их содержание. Просьба не заливать файлы, защищенные авторскими правами, а также файлы нелегального содержания!
cron