Круг / Circle (2015) WEB-DL 720p | Sub

Киноновинки, новинки кинопроката, горячие новинки

Модератор: Модераторы видео

  • Статистика раздачи
Размер: 2.74 ГБ   |  Зарегистрирован: 31 окт 2015, 04:24   |   .torrent скачан: 14 раз
Сидеров: 74  [ 0 байт/сек ]     Личеров: 1  [ 0 байт/сек ]  
Список файлов : Кто скачал : Раздают : Скачивают : Кто благодарил : История : Не раздающие : Запрашивали сидеров : Внешние трекеры 
  

Круг / Circle (2015) WEB-DL 720p | Sub

Сообщение Админ » 31 окт 2015, 04:24

Информация о фильме
Название: Круг
Оригинальное название: Circle
Год выхода: 2015
Жанр: драма
Режиссер: Аарон Ханн, Марио Мисионе
В ролях: Джули Бенц, Картер Дженкинс, Мерси Мэлик, Мэтт Корбой, Лиза Пеликан, Сесар Гарсиа Гомес, Сара Сэндерсон, Кевин Шеридан, Коли Мустафа Спикс, Хорди Виласусо
О фильме: Пятьдесят незнакомцев просыпаются в огромной камере, не имея понятия о том, как попали сюда. Собранные в круг и не способные двигаться, они быстро понимают, что каждые две минуты одного из них будет убивать странное устройство в центре комнаты. Вскоре им становится ясно, что жертва выбирается не случайно, а ими самими, что они могут коллективно влиять на выбор, который делает машина. Но как решить, кто заслуживает умереть? И что будет, когда останется лишь один человек?

Выпущено: США / Taggart Productions, Votiv Films
Продолжительность: 01:26:27
Перевод: Субтитры

Файл
Формат: MKV
Качество: WEB-DL 720p
Видео: MPEG-4 AVC, 4061 kb/s, 1280x532
Аудио: English: AC3, 384 kb/s (6 ch)
Субтитры: Russian [dlz099], English
Format : Matroska
Format version : Version 2
File size : 2.74 GiB
Duration : 1h 26mn
Overall bit rate : 4 535 Kbps
Encoded date : UTC 2015-10-30 19:03:31
Writing application : mkvmerge v7.8.0 ('River Man') 32bit built on Apr 3 2015 12:11:22
Writing library : libebml v1.3.1 + libmatroska v1.4.2

Video
ID : 1
Format : AVC
Format/Info : Advanced Video Codec
Format profile : Main@L3.1
Format settings, CABAC : No
Format settings, ReFrames : 2 frames
Codec ID : V_MPEG4/ISO/AVC
Duration : 1h 26mn
Bit rate : 4 061 Kbps
Width : 1 280 pixels
Height : 532 pixels
Display aspect ratio : 2.40:1
Frame rate mode : Constant
Frame rate : 23.976 fps
Color space : YUV
Chroma subsampling : 4:2:0
Bit depth : 8 bits
Scan type : Progressive
Bits/(Pixel*Frame) : 0.249
Stream size : 2.45 GiB (90%)
Language : English
Default : Yes
Forced : No
Color range : Limited
Color primaries : BT.709
Transfer characteristics : BT.709
Matrix coefficients : BT.709

Audio
ID : 2
Format : AC-3
Format/Info : Audio Coding 3
Mode extension : CM (complete main)
Format settings, Endianness : Big
Codec ID : A_AC3
Duration : 1h 26mn
Bit rate mode : Constant
Bit rate : 384 Kbps
Channel(s) : 6 channels
Channel positions : Front: L C R, Side: L R, LFE
Sampling rate : 48.0 KHz
Bit depth : 16 bits
Compression mode : Lossy
Stream size : 237 MiB (8%)
Language : English
Default : Yes
Forced : No

Text #1
ID : 3
Format : UTF-8
Codec ID : S_TEXT/UTF8
Codec ID/Info : UTF-8 Plain Text
Language : Russian
Default : Yes
Forced : Yes

Text #2
ID : 4
Format : UTF-8
Codec ID : S_TEXT/UTF8
Codec ID/Info : UTF-8 Plain Text
Language : English
Default : No
Forced : No

Menu
00:00:00.000 : en:1
00:11:00.000 : en:2
00:20:39.000 : en:3
00:31:27.000 : en:4
00:44:16.000 : en:5
01:02:03.000 : en:6
01:14:12.000 : en:7
01:22:51.000 : en:8





   
Торрент: Зарегистрирован [31 окт 2015, 04:24] Скачать торрент
Скачать торрент
О MediaGet
[ Размер 14.36 КБ / Просмотров 101 ]

Статус:
 
Приватный: Нет (DHT включён)
Размер: 2.74 ГБ (2 940 467 877 байт)
   
Аватара пользователя

Администратор
Администратор
 
Раздал: 2.29 ПБ
Скачал: 1.01 ПБ
Ратио: 2.265
Сообщения: 2954
Зарегистрирован: 07 май 2010, 17:29
Medals: 1
Лучший релиз за месяц (1)
  • Личное сообщение
  • ICQ

  • Похожие торренты
    Ответы
    Просмотры
    Последнее сообщение

Вернуться в Фильмы 2016 (новинки)

Кто сейчас на конференции

Зарегистрированные пользователи: Anatoliy, cactus, fas28, sergey_tr

Ресурс не предоставляет электронные версии произведений, а занимается лишь коллекционированием и каталогизацией ссылок, присылаемых и публикуемых на форуме нашими читателями. Если вы являетесь правообладателем какого-либо представленного материала и не желаете чтобы ссылка на него находилась в нашем каталоге, свяжитесь с нами и мы незамедлительно удалим её. Файлы для обмена на трекере предоставлены пользователями сайта, и администрация не несёт ответственности за их содержание. Просьба не заливать файлы, защищенные авторскими правами, а также файлы нелегального содержания!
cron