Голос улиц / Straight Outta Compton (2015) WEBRip 720p | L1

Киноновинки, новинки кинопроката, горячие новинки

Модератор: Модераторы видео

  • Статистика раздачи
Размер: 4.45 ГБ   |  Зарегистрирован: 29 окт 2015, 17:30   |   .torrent скачан: 1930 раз
Сидеров: 714  [ 0 байт/сек ]     Личеров: 55  [ 0 байт/сек ]  
Список файлов : Кто скачал : Раздают : Скачивают : Кто благодарил : История : Не раздающие : Запрашивали сидеров : Внешние трекеры 
  

Голос улиц / Straight Outta Compton (2015) WEBRip 720p | L1

Сообщение Админ » 29 окт 2015, 17:31

Информация о фильме
Название: Голос улиц
Оригинальное название: Straight Outta Compton
Год выхода: 2015
Жанр: драма, биография, музыка
Режиссер: Ф. Гэри Грей
В ролях: О’Ши Джексон мл., Кори Хоукинс, Джейсон Митчелл, Нил Браун мл., Элдис Ходж, Марлон Йэтс мл., Р. Маркус Тейлор

О фильме:
История группы N.W.A. из Комптона, штат Калифорния, которая в середине 1980-х произвела революцию в хип-хоп музыке.



Страна: США
Студия: New Line Cinema, Legendary Pictures, Cube Vision, Circle of Confusion
Продолжительность: 02:24:03
Перевод: Любительский (одноголосый, закадровый)

Файл
Кодек: AVC
Качество: WEBRip 720p
Видео: 1280x526 (2.40:1), 23.962 fps, MPEG-4 AVC ~3 864 kbps avg, 0.192 bit/pixel
Аудио №1: 48.0 kHz, AC3 Dolby Digital, 2/0 (L,R) ch, ~192.00 kbps avg (RUS)
Аудио №2: 48.0 kHz, AC3 Dolby Digital, 2/0 (L,R) ch, ~384.00 kbps avg (ENG)
Субтитры: русские | Advanced Sub Station Alpha

General
Unique ID : 204197852803257940327676287928560036031 (0x999F13701AE3E1E683C9B2FB50F0A8BF)
Complete name : Straight.Outta.Compton.2015.L1.720p.WEB-DL.mkv
Format : Matroska
Format version : Version 4 / Version 2
File size : 4.45 GiB
Duration : 2h 24mn
Overall bit rate : 4 426 Kbps
Movie name : Straight.Outta.Compton.2015-BDP
Encoded date : UTC 2015-10-28 14:47:08
Writing application : mkvmerge v7.2.0 ('On Every Street') 32bit built on Sep 13 2014 15:42:11
Writing library : libebml v1.3.0 + libmatroska v1.4.1

Video
ID : 1
Format : AVC
Format/Info : Advanced Video Codec
Format profile : High@L4.1
Format settings, CABAC : Yes
Format settings, ReFrames : 5 frames
Codec ID : V_MPEG4/ISO/AVC
Bit rate : 3 864 Kbps
Width : 1 280 pixels
Height : 526 pixels
Display aspect ratio : 2.40:1
Frame rate mode : Variable
Standard : Component
Color space : YUV
Chroma subsampling : 4:2:0
Bit depth : 8 bits
Scan type : Progressive
Writing library : x264 core 148 r2538
Encoding settings : cabac=1 / ref=5 / deblock=1:-3:-3 / analyse=0x3:0x133 / me=umh / subme=7 / psy=1 / psy_rd=1.00:0.00 / mixed_ref=0 / me_range=16 / chroma_me=1 / trellis=2 / 8x8dct=1 / cqm=0 / deadzone=21,11 / fast_pskip=1 / chroma_qp_offset=-2 / threads=12 / lookahead_threads=2 / sliced_threads=0 / nr=0 / decimate=1 / interlaced=0 / bluray_compat=0 / constrained_intra=0 / bframes=3 / b_pyramid=2 / b_adapt=2 / b_bias=0 / direct=3 / weightb=1 / open_gop=0 / weightp=2 / keyint=250 / keyint_min=25 / scenecut=40 / intra_refresh=0 / rc_lookahead=40 / rc=abr / mbtree=1 / bitrate=3864 / ratetol=1.0 / qcomp=0.60 / qpmin=10 / qpmax=69 / qpstep=4 / vbv_maxrate=62500 / vbv_bufsize=62500 / nal_hrd=none / filler=0 / ip_ratio=1.40 / aq=3:1.00
Default : Yes
Forced : No
Color primaries : BT.709
Transfer characteristics : BT.709
Matrix coefficients : BT.709

Audio #1
ID : 2
Format : AC-3
Format/Info : Audio Coding 3
Mode extension : CM (complete main)
Format settings, Endianness : Big
Codec ID : A_AC3
Duration : 2h 24mn
Bit rate mode : Constant
Bit rate : 192 Kbps
Channel(s) : 2 channels
Channel positions : Front: L R
Sampling rate : 48.0 KHz
Bit depth : 16 bits
Compression mode : Lossy
Stream size : 198 MiB (4%)
Language : Russian
Default : Yes
Forced : No

Audio #2
ID : 3
Format : AC-3
Format/Info : Audio Coding 3
Mode extension : CM (complete main)
Format settings, Endianness : Big
Codec ID : A_AC3
Duration : 2h 24mn
Bit rate mode : Constant
Bit rate : 384 Kbps
Channel(s) : 2 channels
Channel positions : Front: L R
Sampling rate : 48.0 KHz
Bit depth : 16 bits
Compression mode : Lossy
Stream size : 396 MiB (9%)
Language : English
Default : No
Forced : No

Text
ID : 4
Format : ASS
Codec ID : S_TEXT/ASS
Codec ID/Info : Advanced Sub Station Alpha
Compression mode : Lossless
Language : Russian
Default : Yes
Forced : No
   
Торрент: Зарегистрирован [29 окт 2015, 17:30] Скачать торрент
Скачать торрент
О MediaGet
[ Размер 11.87 КБ / Просмотров 115 ]

Статус:
 
Приватный: Нет (DHT включён)
Размер: 4.45 ГБ (4 781 538 131 байт)
   
Аватара пользователя

Администратор
Администратор
 
Раздал: 2.3 ПБ
Скачал: 1.01 ПБ
Ратио: 2.270
Сообщения: 2997
Зарегистрирован: 07 май 2010, 17:29
Medals: 1
Лучший релиз за месяц (1)
  • Личное сообщение
  • ICQ

  • Похожие торренты
    Ответы
    Просмотры
    Последнее сообщение

Вернуться в Фильмы 2016 (новинки)

Кто сейчас на конференции

Зарегистрированные пользователи: DenisKa2100, Dimkinzx, kilinbel, sergioksana, Starsnerus x 1

Ресурс не предоставляет электронные версии произведений, а занимается лишь коллекционированием и каталогизацией ссылок, присылаемых и публикуемых на форуме нашими читателями. Если вы являетесь правообладателем какого-либо представленного материала и не желаете чтобы ссылка на него находилась в нашем каталоге, свяжитесь с нами и мы незамедлительно удалим её. Файлы для обмена на трекере предоставлены пользователями сайта, и администрация не несёт ответственности за их содержание. Просьба не заливать файлы, защищенные авторскими правами, а также файлы нелегального содержания!
cron