В тесноте да не в обиде (2015) SATRip

Киноновинки, новинки кинопроката, горячие новинки

Модератор: Модераторы видео

  • Статистика раздачи
Размер: 1.47 ГБ   |  Зарегистрирован: 26 окт 2015, 01:43   |   .torrent скачан: 1664 раз
Сидеров: 549  [ 0 байт/сек ]     Личеров: 52  [ 0 байт/сек ]  
Список файлов : Кто скачал : Раздают : Скачивают : Кто благодарил : История : Не раздающие : Запрашивали сидеров : Внешние трекеры 
  

В тесноте да не в обиде (2015) SATRip

Сообщение Админ » 26 окт 2015, 01:43

Информация о фильме
Название: В тесноте да не в обиде
Год выхода: 2015
Жанр: Мелодрама
Режиссер: Александр Кананович
В ролях: Валерия Арланова, Руслан Чернецкий, Максим Мельничук, Вероника Савичева, Ирина Шевчук, Владимир Мищанчук, Николай Кучиц

О фильме:
Семья Смирновых когда-то была любящей и дружной. Муж, жена, двое детей – что еще нужно для счастья? Но постепенно все пошло наперекосяк. Жена постоянно ругается с мужем, дело доходит до развода. И они бы развелись, если бы подвернулся хоть какой-нибудь вариант с разменом жилья. Но крошечную квартирку разменять невозможно.
Однажды, во время очередной перебранки, семья получает известие, что к ним едет погостить состоятельная тетушка Василиса Кузьминична (тетя Вася), которая на старости лет решила объехать всю свою родню, чтобы найти идеальную семью. Только такой семье эксцентричная тетушка готова завещать все, что у нее есть. Смирновы решают разыграть «комедию для тети» и побыть пару дней идеальной семьей. Ради наследства можно и постараться, ведь это решит их жилищные проблемы.
Страна: Россия
Продолжительность: 01:45:10
Перевод: Не требуется

Файл
Кодек: XviD
Качество: SATRip
Видео: 720x400 25.00fps 1800kbps
Звук: 48000Hz stereo 192kbps



Общее
Полное имя : D:V.Tesnote.Da.Ne.V.Obide.SATRip.avi
Формат : AVI
Формат/Информация : Audio Video Interleave
Размер файла : 1,27 Гбайт
Продолжительность : 1 ч. 30 м.
Общий поток : 2002 Кбит/сек
Программа кодирования : VirtualDubMod 1.5.10.3 | http://www.virtualdub-fr.org || (build 2550/release)
Библиотека кодирования : VirtualDubMod build 2550/release

Видео
Идентификатор : 0
Формат : MPEG-4 Visual
Профиль формата : Advanced Simple@L5
Параметр BVOP формата : 2
Параметр QPel формата : Нет
Параметр GMC формата : Без точки перехода
Параметр матрицы формата : Default (H.263)
Идентификатор кодека : XVID
Идентификатор кодека/Подсказка : XviD
Продолжительность : 1 ч. 30 м.
Битрейт : 1800 Кбит/сек
Ширина : 720 пикселей
Высота : 400 пикселей
Соотношение сторон : 16:9
Частота кадров : 25,000 кадров/сек
Цветовое пространство : YUV
Субдискретизация насыщенности : 4:2:0
Битовая глубина : 8 бит
Тип развёртки : Прогрессивная
Метод сжатия : С потерями
Бит/(Пиксели*Кадры) : 0.250
Размер потока : 1,14 Гбайт (90%)
Библиотека кодирования : XviD 1.2.1 (UTC 2008-12-04)

Аудио
Идентификатор : 1
Формат : AC-3
Формат/Информация : Audio Coding 3
Расширение режима : CM (complete main)
Параметр Endianness формата : Big
Идентификатор кодека : 2000
Продолжительность : 1 ч. 30 м.
Вид битрейта : Постоянный
Битрейт : 192 Кбит/сек
Каналы : 2 канала
Расположение каналов : Front: L R
Частота : 48,0 КГц
Метод сжатия : С потерями
Размер потока : 124 Мбайт (10%)
Выравнивание : Разделение по промежуткам
Продолжительность промежутка : 40 мс. (1,00 видеокадр)
Время предзагрузки промежутка : 500 мс.



Релиз от:
   
Торрент: Зарегистрирован [26 окт 2015, 01:43] Скачать торрент
Скачать торрент
О MediaGet
[ Размер 15.6 КБ / Просмотров 109 ]

Статус:
 
Приватный: Нет (DHT включён)
Размер: 1.47 ГБ (1 578 688 512 байт)
   
Аватара пользователя

Администратор
Администратор
 
Раздал: 2.3 ПБ
Скачал: 1.01 ПБ
Ратио: 2.270
Сообщения: 2997
Зарегистрирован: 07 май 2010, 17:29
Medals: 1
Лучший релиз за месяц (1)
  • Личное сообщение
  • ICQ

  • Похожие торренты
    Ответы
    Просмотры
    Последнее сообщение

Вернуться в Фильмы 2016 (новинки)

Кто сейчас на конференции

Зарегистрированные пользователи: DenisKa2100, Dimkinzx, kilinbel, sergioksana, Starsnerus x 1

Ресурс не предоставляет электронные версии произведений, а занимается лишь коллекционированием и каталогизацией ссылок, присылаемых и публикуемых на форуме нашими читателями. Если вы являетесь правообладателем какого-либо представленного материала и не желаете чтобы ссылка на него находилась в нашем каталоге, свяжитесь с нами и мы незамедлительно удалим её. Файлы для обмена на трекере предоставлены пользователями сайта, и администрация не несёт ответственности за их содержание. Просьба не заливать файлы, защищенные авторскими правами, а также файлы нелегального содержания!
cron