Тихие омуты / Still waters (2015) WEB-DLRip-AVC | L2

Киноновинки, новинки кинопроката, горячие новинки

Модератор: Модераторы видео

  • Статистика раздачи
Размер: 1.37 ГБ   |  Зарегистрирован: 02 сен 2015, 17:40   |   .torrent скачан: 1338 раз
Сидеров: 1438  [ 0 байт/сек ]     Личеров: 688  [ 0 байт/сек ]  
Список файлов : Кто скачал : Раздают : Скачивают : Кто благодарил : История : Не раздающие : Запрашивали сидеров : Внешние трекеры 
  

Тихие омуты / Still waters (2015) WEB-DLRip-AVC | L2

Сообщение Админ » 02 сен 2015, 17:40

Информация о фильме
Название: Тихие омуты
Оригинальное название: Still waters
Год выхода: 2015
Жанр: триллер
Режиссер: Рей Бердис
В ролях: Джон Ханна, Марго Стилли, Карел Роден, Марк Бердис, Дженн Мюррэй, Питер-Хьюго Дэйли, Джорджина Хейл, Джейсон Мацца, Кристофер Сиуреф, Берил Несбитт

О фильме:
В небольшом английском городке живет милая девушка Эйнджел, чисто ангел во плоти, тихая и робкая, очень любящая свою бабушку. Но никто не знает, что, в прошлом, ее бабушка была организатором детских вечеринок для высокопоставленных педофилов.


Страна: Великобритания
Студия: Carnaby International
Продолжительность: 01:23:21
Перевод: Любительский (двухголосый закадровый) [den904 & DeadSno]

Файл
Кодек: AVC
Качество: WEB-DLRip-AVC
Видео: 768x320, 1964 kbps, 24 fps, 0,333 Bits/(Pixel*Frame)
Звук:
1. AC3, 48 kHz, 2 ch, 192 kbps - RUS
2. AC3, 48 kHz, 2 ch, 192 kbps - ENG
Субтитры: Нет

General
Unique ID : 204116267609076469785213738543750609157 (0x998F5CFA2ED1988D9FBCFE804FD47905)
Complete name : D:Still.waters.2015.L2.WEB-DLRip-AVC_by_Bathory.mkv
Format : Matroska
Format version : Version 2
File size : 1.37 GiB
Duration : 1h 23mn
Overall bit rate : 2 345 Kbps
Encoded date : UTC 2015-09-02 11:05:09
Writing application : mkvmerge v7.7.0 ('Six Voices') 32bit built on Feb 28 2015 23:23:00
Writing library : libebml v1.3.1 + libmatroska v1.4.2
DURATION : 01:23:21.216000000
NUMBER_OF_FRAMES : 156288
NUMBER_OF_BYTES : 120029184
_STATISTICS_WRITING_APP : mkvmerge v7.7.0 ('Six Voices') 32bit built on Feb 28 2015 23:23:00
_STATISTICS_WRITING_DATE_UTC : 2015-09-02 11:05:09
_STATISTICS_TAGS : BPS DURATION NUMBER_OF_FRAMES NUMBER_OF_BYTES

Video
ID : 1
Format : AVC
Format/Info : Advanced Video Codec
Format profile : High@L4.1
Format settings, CABAC : Yes
Format settings, ReFrames : 12 frames
Codec ID : V_MPEG4/ISO/AVC
Duration : 1h 23mn
Bit rate : 1 964 Kbps
Width : 768 pixels
Height : 320 pixels
Display aspect ratio : 2.40:1
Frame rate mode : Constant
Frame rate : 24.000 fps
Color space : YUV
Chroma subsampling : 4:2:0
Bit depth : 8 bits
Scan type : Progressive
Bits/(Pixel*Frame) : 0.333
Stream size : 1.11 GiB (82%)
Writing library : x264 core 146 r2538 121396c
Encoding settings : cabac=1 / ref=12 / deblock=1:-2:-2 / analyse=0x3:0x133 / me=umh / subme=11 / psy=1 / psy_rd=1.15:0.15 / mixed_ref=1 / me_range=32 / chroma_me=1 / trellis=2 / 8x8dct=1 / cqm=0 / deadzone=21,11 / fast_pskip=0 / chroma_qp_offset=-3 / threads=12 / lookahead_threads=2 / sliced_threads=0 / nr=0 / decimate=1 / interlaced=0 / bluray_compat=0 / constrained_intra=0 / bframes=16 / b_pyramid=2 / b_adapt=2 / b_bias=0 / direct=3 / weightb=1 / open_gop=0 / weightp=2 / keyint=240 / keyint_min=24 / scenecut=40 / intra_refresh=0 / rc_lookahead=60 / rc=2pass / mbtree=1 / bitrate=1964 / ratetol=1.0 / qcomp=0.60 / qpmin=0 / qpmax=69 / qpstep=4 / cplxblur=20.0 / qblur=0.5 / vbv_maxrate=62500 / vbv_bufsize=78125 / nal_hrd=none / filler=0 / ip_ratio=1.40 / aq=1:1.00
Default : Yes
Forced : No

Audio #1
ID : 2
Format : AC-3
Format/Info : Audio Coding 3
Mode extension : CM (complete main)
Format settings, Endianness : Big
Codec ID : A_AC3
Duration : 1h 23mn
Bit rate mode : Constant
Bit rate : 192 Kbps
Channel(s) : 2 channels
Channel positions : Front: L R
Sampling rate : 48.0 KHz
Bit depth : 16 bits
Compression mode : Lossy
Stream size : 114 MiB (8%)
Language : Russian
Default : Yes
Forced : No

Audio #2
ID : 3
Format : AC-3
Format/Info : Audio Coding 3
Mode extension : CM (complete main)
Format settings, Endianness : Big
Codec ID : A_AC3
Duration : 1h 23mn
Bit rate mode : Constant
Bit rate : 192 Kbps
Channel(s) : 2 channels
Channel positions : Front: L R
Sampling rate : 48.0 KHz
Bit depth : 16 bits
Compression mode : Lossy
Stream size : 114 MiB (8%)
Language : English
Default : No
Forced : No





Релиз от:

Автор рипа: _Bathory_
   
Торрент: Зарегистрирован [02 сен 2015, 17:40] Скачать торрент
Скачать торрент
О MediaGet
[ Размер 14.46 КБ / Просмотров 77 ]

Статус:
 
Приватный: Нет (DHT включён)
Размер: 1.37 ГБ (1 465 942 841 байт)
   
Аватара пользователя

Администратор
Администратор
 
Раздал: 2.29 ПБ
Скачал: 1.01 ПБ
Ратио: 2.266
Сообщения: 2977
Зарегистрирован: 07 май 2010, 17:29
Medals: 1
Лучший релиз за месяц (1)
  • Личное сообщение
  • ICQ

  • Похожие торренты
    Ответы
    Просмотры
    Последнее сообщение

Вернуться в Фильмы 2016 (новинки)

Кто сейчас на конференции

Зарегистрированные пользователи: sergey_tr, Starsnerus x 1, viRUSik

Ресурс не предоставляет электронные версии произведений, а занимается лишь коллекционированием и каталогизацией ссылок, присылаемых и публикуемых на форуме нашими читателями. Если вы являетесь правообладателем какого-либо представленного материала и не желаете чтобы ссылка на него находилась в нашем каталоге, свяжитесь с нами и мы незамедлительно удалим её. Файлы для обмена на трекере предоставлены пользователями сайта, и администрация не несёт ответственности за их содержание. Просьба не заливать файлы, защищенные авторскими правами, а также файлы нелегального содержания!
cron