Могучие Рейнджеры / Power Rangers (2015) WEBRip 1080p | P

Киноновинки, новинки кинопроката, горячие новинки

Модератор: Модераторы видео

  • Статистика раздачи
Размер: 279.75 МБ   |  Зарегистрирован: 02 сен 2015, 17:27   |   .torrent скачан: 252 раз
Сидеров: 446  [ 0 байт/сек ]     Личеров: 16  [ 0 байт/сек ]  
Список файлов : Кто скачал : Раздают : Скачивают : Кто благодарил : История : Не раздающие : Запрашивали сидеров : Внешние трекеры 
  

Могучие Рейнджеры / Power Rangers (2015) WEBRip 1080p | P

Сообщение Админ » 02 сен 2015, 17:28


«Короткометражный фильм»


Информация о фильме
Название: Могучие/Рейнджеры
Оригинальное название: Power/Rangers
Год выхода: 2015
Страна: США
Жанр: короткометражка, Фантастика, боевик, приключения
Продолжительность: 00:14:19

Перевод: Профессиональный (многоголосый закадровый) - [Студия Jaskier]
Cубтитры: нет

Режиссер: Джозеф Кан
В ролях: Джеймс Ван Дер Бик, Кэти Сакхофф, Гичи Гамба, Уилл Юн Ли, Расс Бэйн, Ив Брайт и др.

Описание:
Клипмейкер Джозеф Кан, приложивший руку к боевику «Крутящий момент» и хоррору «Наказание», снял короткометражный фильм по мотивам вселенной «Могучих рейнджеров». Режиссер решил переосмыслить франшизу, представив собственный взгляд на историю разноцветных героев.

Действие короткометражки разворачивается в постапокалиптическом будущем. Рейнджер-перебежчик, которого сыграл Джеймс Ван Дер Бик («Как я встретил вашу маму»), допрашивает героиню Кэти Сакхофф («Риддик») о серии убийств, в результате которой погибли почти все рейнджеры. В финале нас ждет неожиданный сюжетный твист в лучших традициях бульварных детективов. Рейнджеры Кана не отличаются, к слову, добротой и законопослушностью. Один бродяжничает и прикладывается к бутылке, другой спит одновременно с несколькими девушками, потребляет наркотики, а в свободное от развлечений время охотится на северокорейских военных. Единоборства показаны красочно — с обилием жестоких сцен и крови. Кому-то простреливают голову, в кого-то всаживают нож, а пули, летящие в героя, отскакивают от рейнджеровского шлема прямо в противников.



Файл
Качество: WEBRip 1080p
Формат: MKV
Видео кодек: H264
Аудио кодек: AC3

Видео: 1920x1080 (16:9), 23.976 fps, MPEG4 Video (H264) ~2291Kbps
| Аудио #1: 48 kHz, Audio Coding 3, 2.0, ~192 kbps | Rus | MVO
| Аудио #2: 48 kHz, Audio Coding 3, 2.0, ~192 kbps | Eng | Original



Релиз от:



Код: Выделить всё
General
Unique ID                                : 253642239929917620139044847161094259971 (0xBED1B7EFE4F745B7AB456ED1CE014503)
Complete name                            : Power.Rangers.2015.WEBRip.1080p.H.264.AC3.RUS.-ANTipiGo.mkv
Format                                   : Matroska
Format version                           : Version 2
File size                                : 280 MiB
Duration                                 : 14mn 19s
Overall bit rate                         : 2 729 Kbps
Movie name                               : Могучие/Рейнджеры | Power/Rangers (2015) WEBRip 1080p
Encoded date                             : UTC 2015-02-26 16:29:25
Writing application                      : mkvmerge v5.2.1 ('A Far Off Place') built on Jan  2 2012 23:21:10
Writing library                          : libebml v1.2.3 + libmatroska v1.3.0

Video
ID                                       : 1
Format                                   : AVC
Format/Info                              : Advanced Video Codec
Format profile                           : High@L4.0
Format settings, CABAC                   : Yes
Format settings, ReFrames                : 2 frames
Codec ID                                 : V_MPEG4/ISO/AVC
Duration                                 : 14mn 19s
Bit rate                                 : 2 291 Kbps
Width                                    : 1 920 pixels
Height                                   : 1 080 pixels
Display aspect ratio                     : 16:9
Frame rate mode                          : Constant
Frame rate                               : 23.976 fps
Color space                              : YUV
Chroma subsampling                       : 4:2:0
Bit depth                                : 8 bits
Scan type                                : Progressive
Bits/(Pixel*Frame)                       : 0.046
Stream size                              : 235 MiB (84%)
Title                                    : Релиз от: ANTipiGo
Language                                 : English
Default                                  : Yes
Forced                                   : No

Audio #1
ID                                       : 2
Format                                   : AC-3
Format/Info                              : Audio Coding 3
Mode extension                           : CM (complete main)
Format settings, Endianness              : Big
Codec ID                                 : A_AC3
Duration                                 : 14mn 19s
Bit rate mode                            : Constant
Bit rate                                 : 192 Kbps
Channel(s)                               : 2 channels
Channel positions                        : Front: L R
Sampling rate                            : 48.0 KHz
Bit depth                                : 16 bits
Compression mode                         : Lossy
Stream size                              : 19.7 MiB (7%)
Title                                    : MVO (Jaskier)
Language                                 : Russian
Default                                  : Yes
Forced                                   : No

Audio #2
ID                                       : 3
Format                                   : AC-3
Format/Info                              : Audio Coding 3
Mode extension                           : CM (complete main)
Format settings, Endianness              : Big
Codec ID                                 : A_AC3
Duration                                 : 14mn 19s
Bit rate mode                            : Constant
Bit rate                                 : 192 Kbps
Channel(s)                               : 2 channels
Channel positions                        : Front: L R
Sampling rate                            : 48.0 KHz
Bit depth                                : 16 bits
Compression mode                         : Lossy
Stream size                              : 19.7 MiB (7%)
Title                                    : Original
Language                                 : English
Default                                  : No
Forced                                   : No

   
Торрент: Зарегистрирован [02 сен 2015, 17:27] Скачать торрент
Скачать торрент
О MediaGet
[ Размер 11.65 КБ / Просмотров 103 ]

Статус:
 
Приватный: Нет (DHT включён)
Размер: 279.75 МБ (293 335 549 байт)
   
Аватара пользователя

Администратор
Администратор
 
Раздал: 2.28 ПБ
Скачал: 1.01 ПБ
Ратио: 2.263
Сообщения: 2933
Зарегистрирован: 07 май 2010, 17:29
Medals: 1
Лучший релиз за месяц (1)
  • Личное сообщение
  • ICQ

Вернуться в Фильмы 2016 (новинки)

Кто сейчас на конференции

Зарегистрированные пользователи: Dom_777, Kostya98, L Lawliet, Pashok11121147, styk, злодр, михалыч михалыч

Ресурс не предоставляет электронные версии произведений, а занимается лишь коллекционированием и каталогизацией ссылок, присылаемых и публикуемых на форуме нашими читателями. Если вы являетесь правообладателем какого-либо представленного материала и не желаете чтобы ссылка на него находилась в нашем каталоге, свяжитесь с нами и мы незамедлительно удалим её. Файлы для обмена на трекере предоставлены пользователями сайта, и администрация не несёт ответственности за их содержание. Просьба не заливать файлы, защищенные авторскими правами, а также файлы нелегального содержания!
cron