Робот по имени Чаппи / Chappie (2015) BDRip |Лицензия

Киноновинки, новинки кинопроката, горячие новинки

Модератор: Модераторы видео

  • Статистика раздачи
Размер: 2.18 ГБ   |  Зарегистрирован: 02 сен 2015, 10:09   |   .torrent скачан: 246 раз
Сидеров: 241  [ 0 байт/сек ]     Личеров: 103  [ 0 байт/сек ]  
  

Робот по имени Чаппи / Chappie (2015) BDRip |Лицензия

Сообщение pitius76m » 02 сен 2015, 10:09

Название: Робот по имени Чаппи
Оригинальное название: Chappie
Год выпуска: 2015
Жанр: Фантастика, боевик, триллер
Выпущено: Мексика, США, Columbia Pictures
Режиссер: Нил Бломкамп

В ролях: Хью Джекман , Сигурни Уивер , Шарлто Копли , Дев Патель , Миранда Фригон , Йоланди Фиссер

О фильме: Чаппи — вундеркинд. Как и любой другой ребенок, он попадает под влияние своего окружения, и только его сердце и душа помогут ему найти свой путь. Но есть одна вещь, которая делает Чаппи непохожим на всех остальных: он — первый робот способный чувствовать и думать.

Качество: BDRip исходник (BD-Remux)
Видео: XviD, 1805 Кбит/с, 720x304
Аудио 1: Русский, AC3, 6 ch, 384 Кбит/с | Дублированный Лицензия
Аудио 3: Украинский, AC3, 2 ch, 192 Кбит/с | Дублированный
Аудио 4: Английский, AC3, 2 ch, 192 Кбит/с | Оригинал)
Продолжительность: 02:00:19
Перевод: Дублированный

General
Complete name : G:Chappie (2015) BDRip 2.18.avi
Format : AVI
Format/Info : Audio Video Interleave
Format profile : OpenDML
File size : 2.18 GiB
Duration : 2h 0mn
Overall bit rate : 2 597 Kbps
Writing application : VirtualDubModRus 1.5.10.2 (build 2542/release)
Writing library : VirtualDubMod build 2542/release

Video
ID : 0
Format : MPEG-4 Visual
Format profile : Advanced Simple@L5
Format settings, BVOP : 2
Format settings, QPel : No
Format settings, GMC : No warppoints
Format settings, Matrix : Default (H.263)
Codec ID : XVID
Codec ID/Hint : XviD
Duration : 2h 0mn
Bit rate : 1 805 Kbps
Width : 720 pixels
Height : 304 pixels
Display aspect ratio : 2.35:1
Frame rate : 23.976 fps
Color space : YUV
Chroma subsampling : 4:2:0
Bit depth : 8 bits
Scan type : Progressive
Compression mode : Lossy
Bits/(Pixel*Frame) : 0.344
Stream size : 1.52 GiB (70%)
Writing library : XviD 57

Audio #1
ID : 1
Format : AC-3
Format/Info : Audio Coding 3
Mode extension : CM (complete main)
Format settings, Endianness : Big
Codec ID : 2000
Duration : 2h 0mn
Bit rate mode : Constant
Bit rate : 384 Kbps
Channel(s) : 6 channels
Channel positions : Front: L C R, Side: L R, LFE
Sampling rate : 48.0 KHz
Bit depth : 16 bits
Compression mode : Lossy
Stream size : 330 MiB (15%)
Alignment : Split accross interleaves
Interleave, duration : 42 ms (1.00 video frame)
Interleave, preload duration : 500 ms

Audio #2
ID : 2
Format : AC-3
Format/Info : Audio Coding 3
Mode extension : CM (complete main)
Format settings, Endianness : Big
Codec ID : 2000
Duration : 2h 0mn
Bit rate mode : Constant
Bit rate : 192 Kbps
Channel(s) : 2 channels
Channel positions : Front: L R
Sampling rate : 48.0 KHz
Bit depth : 16 bits
Compression mode : Lossy
Stream size : 165 MiB (7%)
Alignment : Split accross interleaves
Interleave, duration : 42 ms (1.00 video frame)
Interleave, preload duration : 500 ms

Audio #3
ID : 3
Format : AC-3
Format/Info : Audio Coding 3
Mode extension : CM (complete main)
Format settings, Endianness : Big
Codec ID : 2000
Duration : 2h 0mn
Bit rate mode : Constant
Bit rate : 192 Kbps
Channel(s) : 2 channels
Channel positions : Front: L R
Sampling rate : 48.0 KHz
Bit depth : 16 bits
Compression mode : Lossy
Stream size : 165 MiB (7%)
Alignment : Split accross interleaves
Interleave, duration : 42 ms (1.00 video frame)
Interleave, preload duration : 500 ms


   
Торрент: Зарегистрирован [02 сен 2015, 10:09] Данный торрент является блокированным, причина: повторный торрент Скачать торрент
Скачать торрент
О MediaGet
[ Размер 11.57 КБ / Просмотров 38 ]

Статус:
 
Приватный: Нет (DHT включён)
Размер: 2.18 ГБ (2 343 325 696 байт)
   
Аватара пользователя
Модератор видео
Модератор видео
 
Раздал: 9.44 ТБ
Скачал: 1 ТБ
Ратио: 9.499
Сообщения: 467
Зарегистрирован: 24 янв 2011, 10:36
Откуда: Продажа компьютерных игр STWAM
  • Личное сообщение
  • Сайт

  • Похожие торренты
    Ответы
    Просмотры
    Последнее сообщение

Re: Робот по имени Чаппи / Chappie (2015) BDRip |Лицензия

Сообщение CMAuJI » 02 сен 2015, 12:32


Руководство по разделувидео
Аватара пользователя
Модератор видео
Модератор видео
 
Раздал: 272.25 ГБ
Скачал: 289.53 ГБ
Ратио: 1.113
Сообщения: 803
Зарегистрирован: 10 ноя 2012, 15:02
Откуда: Краснодарский край.
Medals: 1
2 место (1)
  • Личное сообщение
  • ICQ


Вернуться в Фильмы 2016 (новинки)

Кто сейчас на конференции

Зарегистрированные пользователи: sergey_tr, Starsnerus x 1, viRUSik

Ресурс не предоставляет электронные версии произведений, а занимается лишь коллекционированием и каталогизацией ссылок, присылаемых и публикуемых на форуме нашими читателями. Если вы являетесь правообладателем какого-либо представленного материала и не желаете чтобы ссылка на него находилась в нашем каталоге, свяжитесь с нами и мы незамедлительно удалим её. Файлы для обмена на трекере предоставлены пользователями сайта, и администрация не несёт ответственности за их содержание. Просьба не заливать файлы, защищенные авторскими правами, а также файлы нелегального содержания!