Останкино. Башня в Огне (2015) HDTVRip 720p

Киноновинки, новинки кинопроката, горячие новинки

Модератор: Модераторы видео

  • Статистика раздачи
Размер: 1.58 ГБ   |  Зарегистрирован: 28 авг 2015, 21:32   |   .torrent скачан: 774 раз
Сидеров: 355  [ 0 байт/сек ]     Личеров: 44  [ 0 байт/сек ]  
Список файлов : Кто скачал : Раздают : Скачивают : Кто благодарил : История : Не раздающие : Запрашивали сидеров : Внешние трекеры 
  

Останкино. Башня в Огне (2015) HDTVRip 720p

Сообщение Админ » 28 авг 2015, 21:32

Останкино. Башня в Огне

Год выпуска: 2015
Страна: Россия
Студия: Первый Канал HD | Телекомпания "Останкино"
Жанр: Документальный
Продолжительность: 0:51:41
Продюсеры: Сергей Медведев, Олег Вольнов
Автор: Владимир Положенцев
Режиссер: Татьяна Варданян

Описание: 27 августа 2000 года произошла одна из крупнейших техногенных катастроф в истории России, загорелась Останкинская телебашня. Москва и область оказались в информационном вакууме. Первыми происшествие заметили не пожарные, а жительница дома номер 4 по Гостиничному проезду Елена Тонина, она то и позвонила в службу "01", сообщив, что из-под шпиля Останкинской башни валит дым...

Автор рипа: lrn
Автор записи: GeneralFilm
Сэмпл: sendfile

Тип релиза: HDTVRip 720p
Контейнер: MKV
Видео: 1280x720 (16:9), 25,000 fps, H264, ~4000 kbps avg, ~0.174 bit/pixel
Аудио: 48 kHz, AC3 Dolby Digital, 3/2 (L,C,R,l,r) + LFE ch, ~384.00 kbps avg

General
Unique ID : 197144662478985863439993957224277883920 (0x9450AE4E714F6AFFAB5B23ACFDE03C10)
Complete name : E:uTorrent.TempTempOstankino.Bashnya.v.Ogne.2015.HDTV.720p.x264-lrn.mkv
Format : Matroska
Format version : Version 4 / Version 2
File size : 1.58 GiB
Duration : 51mn 41s
Overall bit rate : 4 385 Kbps
Movie name : Ostankino.Bashnya.v.Ogne.2015.HDTV.720p.x264-lrn
Encoded date : UTC 2010-02-22 21:41:31
Writing application : mkvmerge v5.9.0 ('On The Loose') built on Dec 9 2012 15:37:01
Writing library : libebml v1.3.0 + libmatroska v1.4.0
DURATION : 00:51:41.960000000
NUMBER_OF_FRAMES : 77549
NUMBER_OF_BYTES : 1550735148
_STATISTICS_WRITING_APP : mkvmerge v7.7.0 ('Six Voices') 32bit built on Feb 28 2015 23:23:00
_STATISTICS_WRITING_DATE_UT : 2015-08-28 07:26:39
_STATISTICS_TAGS : BPS DURATION NUMBER_OF_FRAMES NUMBER_OF_BYTES

Video
ID : 1
Format : AVC
Format/Info : Advanced Video Codec
Format profile : High@L4.1
Format settings, CABAC : Yes
Format settings, ReFrames : 8 frames
Codec ID : V_MPEG4/ISO/AVC
Duration : 51mn 41s
Bit rate : 4 000 Kbps
Width : 1 280 pixels
Height : 720 pixels
Display aspect ratio : 16:9
Frame rate mode : Constant
Frame rate : 25.000 fps
Color space : YUV
Chroma subsampling : 4:2:0
Bit depth : 8 bits
Scan type : Progressive
Bits/(Pixel*Frame) : 0.174
Stream size : 1.41 GiB (89%)
Writing library : x264 core 146 r2538 121396c
Encoding settings : cabac=1 / ref=8 / deblock=1:-3:-3 / analyse=0x3:0x133 / me=umh / subme=9 / psy=1 / psy_rd=1.00:0.00 / mixed_ref=1 / me_range=32 / chroma_me=1 / trellis=2 / 8x8dct=1 / cqm=0 / deadzone=21,11 / fast_pskip=1 / chroma_qp_offset=-2 / threads=12 / lookahead_threads=2 / sliced_threads=0 / nr=0 / decimate=1 / interlaced=0 / bluray_compat=0 / constrained_intra=0 / bframes=8 / b_pyramid=2 / b_adapt=2 / b_bias=0 / direct=3 / weightb=1 / open_gop=0 / weightp=2 / keyint=250 / keyint_min=25 / scenecut=40 / intra_refresh=0 / rc_lookahead=50 / rc=2pass / mbtree=1 / bitrate=4000 / ratetol=1.0 / qcomp=0.60 / qpmin=0 / qpmax=69 / qpstep=4 / cplxblur=20.0 / qblur=0.5 / vbv_maxrate=62500 / vbv_bufsize=78125 / nal_hrd=none / filler=0 / ip_ratio=1.40 / aq=1:1.00
Default : Yes
Forced : No

Audio
ID : 2
Format : AC-3
Format/Info : Audio Coding 3
Mode extension : CM (complete main)
Format settings, Endianness : Big
Codec ID : A_AC3
Duration : 51mn 41s
Bit rate mode : Constant
Bit rate : 384 Kbps
Channel(s) : 6 channels
Channel positions : Front: L C R, Side: L R, LFE
Sampling rate : 48.0 KHz
Compression mode : Lossy
Stream size : 142 MiB (9%)
Language : Russian
Default : Yes
Forced : No
raw [info]: 1280x720p 1:1 @ 25/1 fps (cfr)
x264 [info]: using SAR=1/1
x264 [info]: using cpu capabilities: MMX2 SSE2Fast SSSE3 SSE4.2 AVX
x264 [info]: profile High, level 4.1
x264 [info]: frame I:616 Avg QP:16.54 size:106412
x264 [info]: frame P:21559 Avg QP:19.39 size: 36262
x264 [info]: frame B:55374 Avg QP:22.08 size: 12703
x264 [info]: consecutive B-frames: 4.2% 5.1% 5.7% 68.5% 5.7% 7.3% 1.1% 2.2% 0.2%
x264 [info]: mb I I16..4: 7.9% 76.0% 16.1%
x264 [info]: mb P I16..4: 3.4% 11.5% 1.6% P16..4: 45.8% 17.2% 12.4% 0.5% 0.1% skip: 7.5%
x264 [info]: mb B I16..4: 0.2% 1.2% 0.2% B16..8: 37.1% 8.3% 1.9% direct: 8.5% skip:42.6% L0:41.4% L1:46.1% BI:12.5%
x264 [info]: 8x8 transform intra:71.5% inter:68.1%
x264 [info]: direct mvs spatial:97.7% temporal:2.3%
x264 [info]: coded y,uvDC,uvAC intra: 72.6% 83.1% 47.2% inter: 26.0% 32.8% 3.0%
x264 [info]: i16 v,h,dc,p: 35% 24% 7% 34%
x264 [info]: i8 v,h,dc,ddl,ddr,vr,hd,vl,hu: 13% 9% 6% 9% 13% 15% 12% 13% 11%
x264 [info]: i4 v,h,dc,ddl,ddr,vr,hd,vl,hu: 11% 33% 3% 6% 10% 11% 9% 9% 9%
x264 [info]: i8c dc,h,v,p: 35% 25% 21% 19%
x264 [info]: Weighted P-Frames: Y:4.9% UV:2.6%
x264 [info]: ref P L0: 51.7% 11.5% 15.9% 6.1% 4.8% 3.9% 3.4% 2.4% 0.3% 0.0%
x264 [info]: ref B L0: 80.5% 9.8% 4.3% 2.1% 1.7% 1.0% 0.6%
x264 [info]: ref B L1: 95.4% 4.6%
x264 [info]: kb/s:3999.37
encoded 77549 frames, 14.11 fps, 3999.37 kb/s
   
Торрент: Зарегистрирован [28 авг 2015, 21:32] Скачать торрент
Скачать торрент
О MediaGet
[ Размер 16.8 КБ / Просмотров 72 ]

Статус:
 
Приватный: Нет (DHT включён)
Размер: 1.58 ГБ (1 700 344 390 байт)
   
Аватара пользователя

Администратор
Администратор
 
Раздал: 2.3 ПБ
Скачал: 1.01 ПБ
Ратио: 2.270
Сообщения: 2997
Зарегистрирован: 07 май 2010, 17:29
Medals: 1
Лучший релиз за месяц (1)
  • Личное сообщение
  • ICQ

  • Похожие торренты
    Ответы
    Просмотры
    Последнее сообщение

Вернуться в Фильмы 2016 (новинки)

Кто сейчас на конференции

Зарегистрированные пользователи: DenisKa2100, Dimkinzx, kilinbel, sergioksana, Starsnerus x 1

Ресурс не предоставляет электронные версии произведений, а занимается лишь коллекционированием и каталогизацией ссылок, присылаемых и публикуемых на форуме нашими читателями. Если вы являетесь правообладателем какого-либо представленного материала и не желаете чтобы ссылка на него находилась в нашем каталоге, свяжитесь с нами и мы незамедлительно удалим её. Файлы для обмена на трекере предоставлены пользователями сайта, и администрация не несёт ответственности за их содержание. Просьба не заливать файлы, защищенные авторскими правами, а также файлы нелегального содержания!
cron