Монстры 2: Тёмный континент / Monsters: Dark Continent (2014) HDRip | P

Киноновинки, новинки кинопроката, горячие новинки

Модератор: Модераторы видео

  • Статистика раздачи
Размер: 745.79 МБ   |  Зарегистрирован: 13 июл 2015, 20:30   |   .torrent скачан: 1457 раз
Сидеров: 1420  [ 0 байт/сек ]     Личеров: 430  [ 0 байт/сек ]  
Список файлов : Кто скачал : Раздают : Скачивают : Кто благодарил : История : Не раздающие : Запрашивали сидеров : Внешние трекеры 
  

Монстры 2: Тёмный континент / Monsters: Dark Continent (2014) HDRip | P

Сообщение Фаромир брат » 13 июл 2015, 20:30

Информация о фильме
Название: Монстры 2: Тёмный континент
Оригинальное название: Monsters: Dark Continent
Год выхода: 2014
Жанр: фантастика, триллер, драма
Режиссер: Том Грин
В ролях: Джонни Харрис, Сэм Кили, Джозеф Демпси, Кайл Соллер, Николас Пиннок, Паркер Сойерс, Филип Ардитти, София Бутелла, Михаэла Коэл, Hassan Sha'er

О фильме: Прошло 7 лет после событий первой части, и «зараженные зоны» распространились по всему миру. Теперь человечество борется за выживание. Эмилио, молодой врач, присоединяется к спасательной операции по поиску пропавших в самом центре территории монстров. Ужас того, о чем он узнает во время экспедиции, не поддается описанию…



Выпущено: Великобритания / Between The Eyes, International Traders, Vertigo Films
Продолжительность: 01:59:03
Озвучивание: Профессиональное (многоголосое) [Официальный звук]

Файл
Формат: AVI (XviD)
Качество: HDRip
Видео: 738 kb/s, 640x272
Аудио: MP3, 128 kb/s (2 ch)
Размер: 745 MB
Скачать: Сэмпл


General
Complete name : C:UsersuserDesktopMonstry.2.Temnyj.kontinent.2014.P.HDRip745.avi
Format : AVI
Format/Info : Audio Video Interleave
File size : 746 MiB
Duration : 1h 59mn
Overall bit rate : 876 Kbps
Writing application : VirtualDubMod 1.5.10.2 (build 2540/release)
Writing library : VirtualDubMod build 2540/release

Video
ID : 0
Format : MPEG-4 Visual
Format profile : Advanced Simple@L5
Format settings, BVOP : 2
Format settings, QPel : No
Format settings, GMC : No warppoints
Format settings, Matrix : Default (MPEG)
Codec ID : XVID
Codec ID/Hint : XviD
Duration : 1h 59mn
Bit rate : 739 Kbps
Width : 640 pixels
Height : 272 pixels
Display aspect ratio : 2.35:1
Frame rate : 23.976 fps
Color space : YUV
Chroma subsampling : 4:2:0
Bit depth : 8 bits
Scan type : Progressive
Compression mode : Lossy
Bits/(Pixel*Frame) : 0.177
Stream size : 629 MiB (84%)
Writing library : XviD 1.2.1 (UTC 2008-12-04)

Audio
ID : 1
Format : MPEG Audio
Format version : Version 1
Format profile : Layer 3
Mode : Joint stereo
Codec ID : 55
Codec ID/Hint : MP3
Duration : 1h 58mn
Bit rate mode : Constant
Bit rate : 128 Kbps
Channel(s) : 2 channels
Sampling rate : 48.0 KHz
Compression mode : Lossy
Stream size : 109 MiB (15%)
Alignment : Aligned on interleaves
Interleave, duration : 42 ms (1.00 video frame)
Interleave, preload duration : 504 ms







   
Торрент: Зарегистрирован [13 июл 2015, 20:30] Скачать торрент
Скачать торрент
О MediaGet
[ Размер 15.47 КБ / Просмотров 68 ]

Статус:
 
Приватный: Нет (DHT включён)
Размер: 745.79 МБ (782 014 464 байт)
   
Аватара пользователя

Супермодератор
Супермодератор
 
Раздал: 24.31 ТБ
Скачал: 1.7 ТБ
Ратио: 21.017
Сообщения: 7751
Фото: 123
Зарегистрирован: 26 ноя 2012, 17:20
Medals: 2
1000 раздач! (1) Меценат №2 (1)

  • Похожие торренты
    Ответы
    Просмотры
    Последнее сообщение

Re: Монстры 2: Тёмный континент / Monsters: Dark Continent (2014) HDRip | P

Сообщение Dryu » 14 июл 2015, 19:32

спасибо
Аватара пользователя
Пир-флудер
Пир-флудер
 
Раздал: 3.64 ТБ
Скачал: 1.32 ТБ
Ратио: 2.797
Сообщения: 625
Зарегистрирован: 03 июл 2009, 15:38
Откуда: Анапа-Сити
  • Личное сообщение
  • ICQ


Вернуться в Фильмы 2016 (новинки)

Кто сейчас на конференции

Зарегистрированные пользователи: Angelvoin1711, Dom_777, s19802005, Starsnerus, злодр

Ресурс не предоставляет электронные версии произведений, а занимается лишь коллекционированием и каталогизацией ссылок, присылаемых и публикуемых на форуме нашими читателями. Если вы являетесь правообладателем какого-либо представленного материала и не желаете чтобы ссылка на него находилась в нашем каталоге, свяжитесь с нами и мы незамедлительно удалим её. Файлы для обмена на трекере предоставлены пользователями сайта, и администрация не несёт ответственности за их содержание. Просьба не заливать файлы, защищенные авторскими правами, а также файлы нелегального содержания!
cron