Агенты А.Н.К.Л. / The Man from U.N.C.L.E. (2015) WEBRip 1080p | Трейлер

Киноновинки, новинки кинопроката, горячие новинки

Модератор: Модераторы видео

  • Статистика раздачи
Размер: 128.32 МБ   |  Зарегистрирован: 07 июл 2015, 00:50   |   .torrent скачан: 703 раз
Сидеров: 611  [ 0 байт/сек ]     Личеров: 38  [ 0 байт/сек ]  
Список файлов : Кто скачал : Раздают : Скачивают : Кто благодарил : История : Не раздающие : Запрашивали сидеров : Внешние трекеры 
  

Агенты А.Н.К.Л. / The Man from U.N.C.L.E. (2015) WEBRip 1080p | Трейлер

Сообщение Админ » 07 июл 2015, 00:50

Год выпуска: 2015
Производство: США
Жанр: боевик, Комедия, приключения

Режиссер: Гай Ричи
Продюсеры: Стив Кларк-Холл, Джон Дэвис, Джефф Клеман
Актеры: Генри Кавилл, Арми Хаммер, Алисия Викандер, Элизабет Дебики, Хью Грант, Джаред Харрис, Дэвид Бекхэм, Екатерина Залитко, Кристиан Беркель, Лука Кальвани

Описание фильма:
Главные герои — сотрудники международной сети U.N.C.L.E. (United Network Command for Law and Enforcement) Наполеон Соло и Илья Курякин, у которых нешуточная конфронтация с криминальной организацией «T.H.R.U.S.H.» (Technological Hierarchy for the Removal of Undesirables and the Subjugation of Humanity) или по-простонародному — Дядьки против Дроздов.

Дата мировой премьеры: 13 августа 2015
Дата российской премьеры: 13 августа 2015


Продолжительность: 00:02:42
Качество видео: WEBRip 1080p

Видеокодек: MPEG-4 AVC/H.264
Битрейт видео: 6491 Кбит/сек
Размер кадра: 1920x804
Аудиокодек: AAC
Битрейт аудио: 127 Кбит/сек

Общее
Полное имя : Man-from-U_N_C_L_E_.mp4
Формат : MPEG-4
Профиль формата : Base Media
Идентификатор кодека : isom
Размер файла : 128 Мбайт
Продолжительность : 2 м. 42 с.
Режим общего битрейта : Переменный
Общий поток : 6622 Кбит/сек
Дата кодирования : UTC 2015-07-02 13:03:07
Дата пометки : UTC 2015-07-02 13:03:07
Программа кодирования : Lavf51.12.1

Видео
Идентификатор : 1
Формат : AVC
Формат/Информация : Advanced Video Codec
Профиль формата : High@L4
Параметр CABAC формата : Нет
Параметр ReFrames формата : 5 кадров
Параметр GOP формата : M=1, N=12
Идентификатор кодека : avc1
Идентификатор кодека/Информация : Advanced Video Coding
Продолжительность : 2 м. 42 с.
Битрейт : 6491 Кбит/сек
Ширина : 1920 пикселей
Высота : 804 пикселя
Соотношение сторон : 2,40:1
Режим частоты кадров : Постоянный
Частота кадров : 24,000 кадра/сек
Цветовое пространство : YUV
Субдискретизация насыщенности : 4:2:0
Битовая глубина : 8 бит
Тип развёртки : Прогрессивная
Бит/(Пиксели*Кадры) : 0.175
Размер потока : 126 Мбайт (98%)
Дата кодирования : UTC 2015-07-02 13:03:07
Дата пометки : UTC 2015-07-02 13:03:07

Аудио
Идентификатор : 2
Формат : AAC
Формат/Информация : Advanced Audio Codec
Профиль формата : LC
Идентификатор кодека : 40
Продолжительность : 2 м. 42 с.
Вид битрейта : Переменный
Битрейт : 127 Кбит/сек
Каналы : 2 канала
Расположение каналов : Front: L R
Частота : 44,1 КГц
Метод сжатия : С потерями
Размер потока : 2,46 Мбайт (2%)
Дата кодирования : UTC 2015-07-02 13:03:07
Дата пометки : UTC 2015-07-02 13:03:07


Скриншоты






   
Торрент: Зарегистрирован [07 июл 2015, 00:50] Скачать торрент
Скачать торрент
О MediaGet
[ Размер 10.81 КБ / Просмотров 43 ]

Статус:
 
Приватный: Нет (DHT включён)
Размер: 128.32 МБ (134 551 933 байт)
   
Аватара пользователя

Администратор
Администратор
 
Раздал: 2.29 ПБ
Скачал: 1.01 ПБ
Ратио: 2.265
Сообщения: 2954
Зарегистрирован: 07 май 2010, 17:29
Medals: 1
Лучший релиз за месяц (1)
  • Личное сообщение
  • ICQ

  • Похожие торренты
    Ответы
    Просмотры
    Последнее сообщение

Вернуться в Фильмы 2016 (новинки)

Кто сейчас на конференции

Зарегистрированные пользователи: Anatoliy, fas28, sergey_tr

Ресурс не предоставляет электронные версии произведений, а занимается лишь коллекционированием и каталогизацией ссылок, присылаемых и публикуемых на форуме нашими читателями. Если вы являетесь правообладателем какого-либо представленного материала и не желаете чтобы ссылка на него находилась в нашем каталоге, свяжитесь с нами и мы незамедлительно удалим её. Файлы для обмена на трекере предоставлены пользователями сайта, и администрация не несёт ответственности за их содержание. Просьба не заливать файлы, защищенные авторскими правами, а также файлы нелегального содержания!
cron