Астрал 3 / Insidious: Chapter 3 (2015) WEBRip 720p | Чистый звук

Киноновинки, новинки кинопроката, горячие новинки

Модератор: Модераторы видео

  • Статистика раздачи
Размер: 1.98 ГБ   |  Зарегистрирован: 01 июл 2015, 19:30   |   .torrent скачан: 2488 раз
Сидеров: 4087  [ 0 байт/сек ]     Личеров: 591  [ 0 байт/сек ]  
Список файлов : Кто скачал : Раздают : Скачивают : Кто благодарил : История : Не раздающие : Запрашивали сидеров : Внешние трекеры 
  

Астрал 3 / Insidious: Chapter 3 (2015) WEBRip 720p | Чистый звук

Сообщение Фаромир брат » 01 июл 2015, 19:30

Информация о фильме
Название: Астрал 3
Оригинальное название: Insidious: Chapter 3
Год выхода: 2015
Жанр: Ужасы
Режиссер: Ли Уоннелл
В ролях: Стефани Скотт, Дермот Малруни, Энгус Сэмпсон, Ли Уоннелл, Лин Шэй, Тейт Берни, Майкл Рид МакКей, Стив Култер, Хейли Кийоко, Корбетт Так

О фильме: История о том, как одаренный экстрасенс Элис Рейнер неохотно соглашается использовать свои способности для установления связи с мертвыми, чтобы помочь девочке-подростку, которая стала мишенью для опасной сверхъестественной сущности.



Выпущено: Канада, США / Automatik Entertainment, Blumhouse Productions, Entertainment One
Продолжительность: 01:37:27
Озвучивание: Дублированное [Чистый звук]
Примечание: Присутствуют около 4-х минут вставок звука с TS и вшитые неотключаемые китайские субтитры.

Файл
Формат: MKV (x264)
Качество: WEBRip 720p
Видео: 2700 kb/s, 1280x536
Аудио: AC3, 128 kb/s (2 ch)
Размер: 1.94 GB
Скачать: Сэмпл


General
Unique ID : 211464721934515527123162277076739723421 (0x9F169FBF7B2C389C803A561A85AE909D)
Complete name : C:UsersuserDesktopAstral.3.2015.D.WEBRip.720p.mkv
Format : Matroska
Format version : Version 4 / Version 2
File size : 1.98 GiB
Duration : 1h 37mn
Overall bit rate : 2 914 Kbps
Movie name : Astral.3.2015.D.WEBRip.720p.ELEKTRI4KA.uniongang.tv [Carl Gauß]
Encoded date : UTC 2015-06-29 08:32:03
Writing application : mkvmerge v6.9.1 ('Blue Panther') 64bit built on Apr 18 2014 18:23:38
Writing library : libebml v1.3.0 + libmatroska v1.4.1

Video
ID : 1
Format : AVC
Format/Info : Advanced Video Codec
Format profile : High@L4.1
Format settings, CABAC : Yes
Format settings, ReFrames : 4 frames
Codec ID : V_MPEG4/ISO/AVC
Duration : 1h 37mn
Bit rate : 2 700 Kbps
Width : 1 280 pixels
Height : 536 pixels
Display aspect ratio : 2.40:1
Frame rate mode : Constant
Frame rate : 23.976 fps
Color space : YUV
Chroma subsampling : 4:2:0
Bit depth : 8 bits
Scan type : Progressive
Bits/(Pixel*Frame) : 0.164
Stream size : 1.81 GiB (91%)
Title : Astral.3.2015.D.WEBRip.720p.ELEKTRI4KA.uniongang.tv [Carl Gauß]
Writing library : x264 core 125 r2200 999b753
Encoding settings : cabac=1 / ref=1 / deblock=1:-1:-1 / analyse=0x3:0x113 / me=dia / subme=1 / psy=1 / psy_rd=1.00:0.10 / mixed_ref=0 / me_range=16 / chroma_me=1 / trellis=0 / 8x8dct=1 / cqm=0 / deadzone=21,11 / fast_pskip=1 / chroma_qp_offset=0 / threads=12 / lookahead_threads=2 / sliced_threads=0 / nr=0 / decimate=1 / interlaced=0 / bluray_compat=0 / constrained_intra=0 / bframes=3 / b_pyramid=2 / b_adapt=1 / b_bias=0 / direct=1 / weightb=1 / open_gop=0 / weightp=1 / keyint=250 / keyint_min=23 / scenecut=40 / intra_refresh=0 / rc_lookahead=10 / rc=abr / mbtree=1 / bitrate=2700 / ratetol=1.0 / qcomp=0.60 / qpmin=0 / qpmax=69 / qpstep=4 / ip_ratio=1.40 / aq=1:1.00
Language : English
Default : Yes
Forced : No

Audio
ID : 2
Format : AC-3
Format/Info : Audio Coding 3
Mode extension : CM (complete main)
Format settings, Endianness : Big
Codec ID : A_AC3
Duration : 1h 37mn
Bit rate mode : Constant
Bit rate : 192 Kbps
Channel(s) : 2 channels
Channel positions : Front: L R
Sampling rate : 48.0 KHz
Bit depth : 16 bits
Compression mode : Lossy
Stream size : 134 MiB (7%)
Title : Astral.3.2015.D.WEBRip.720p.ELEKTRI4KA.uniongang.tv [Carl Gauß]
Language : Russian
Default : Yes
Forced : No










   
Торрент: Зарегистрирован [01 июл 2015, 19:30] Скачать торрент
Скачать торрент
О MediaGet
[ Размер 20.59 КБ / Просмотров 200 ]

Статус:
 
Приватный: Нет (DHT включён)
Размер: 1.98 ГБ (2 129 597 340 байт)
   
Аватара пользователя

Супермодератор
Супермодератор
 
Раздал: 24.31 ТБ
Скачал: 1.7 ТБ
Ратио: 21.017
Сообщения: 7774
Фото: 123
Зарегистрирован: 26 ноя 2012, 17:20
Medals: 2
1000 раздач! (1) Меценат №2 (1)

  • Похожие торренты
    Ответы
    Просмотры
    Последнее сообщение

Вернуться в Фильмы 2016 (новинки)

Кто сейчас на конференции

Зарегистрированные пользователи: sergey_tr, ЗУРБАГАН

Ресурс не предоставляет электронные версии произведений, а занимается лишь коллекционированием и каталогизацией ссылок, присылаемых и публикуемых на форуме нашими читателями. Если вы являетесь правообладателем какого-либо представленного материала и не желаете чтобы ссылка на него находилась в нашем каталоге, свяжитесь с нами и мы незамедлительно удалим её. Файлы для обмена на трекере предоставлены пользователями сайта, и администрация не несёт ответственности за их содержание. Просьба не заливать файлы, защищенные авторскими правами, а также файлы нелегального содержания!
cron