Самба / Samba (2014) BDRip 1080p | Лицензия

Киноновинки, новинки кинопроката, горячие новинки

Модератор: Модераторы видео

  • Статистика раздачи
Размер: 7.75 ГБ   |  Зарегистрирован: 28 июн 2015, 10:24   |   .torrent скачан: 138 раз
Сидеров: 114  [ 0 байт/сек ]     Личеров: 144  [ 0 байт/сек ]  
Список файлов : Кто скачал : Раздают : Скачивают : Кто благодарил : История : Не раздающие : Запрашивали сидеров : Внешние трекеры 
  

Самба / Samba (2014) BDRip 1080p | Лицензия

Сообщение pitius76m » 28 июн 2015, 10:24

Информация о фильме
Название: Самба
Оригинальное название: Samba
Год выхода: 2014
Жанр: драма, Комедия
Режиссер: Оливье Накаш, Эрик Толедано

В ролях: Омар Си, Шарлотта Генсбур, Тахар Рахим, Изиа Ижлен, Исака Савадого, Элен Венсан, Янгар Фолл, Кристиана Милле, Жаклин Жеаннеф, Лия Кебеде

О фильме: Самба — сенегалец, живущий во Франции десять лет, но неудачи все еще преследуют его — он не может устроиться на хорошее место работы. Элис — руководитель высшего звена, буквально «сгорела» на работе. Самба всеми силами пытается получить документы, чтобы трудоустроиться, а Алиса ищет спасения от пустоты собственной жизни. Каждый из них ищет выход из сложившегося тупика, пока в один прекрасный день их судьбы не пересекаются. Между смехом и слезами их история прокладывает себе дорогу к счастью.



Выпущено: Gaumont, Broad Green Pictures
Продолжительность: 01:58:20
Перевод: Дублированный (R5)

Файл
Кодек: x264
Качество: BDRip (источник: Blu-ray Disc)
Видео: 1920x1040 (1,85:1), 24.000 fps (True24p), 8295 kbps
Аудио #1: AC-3, 6 ch, 448 kbps (Rus)
Аудио #2: AC-3, 6 ch, 640 kbps (Fre)
Субтитры: Английские

General
Unique ID : 228173106126959538307470198934736704759 (0xABA88AB0BE116208BF9845E106EB94F7)
Complete name : D:Samba.2014.BDRip.1080p.Rus.Fre.mkv
Format : Matroska
Format version : Version 2
File size : 7.75 GiB
Duration : 1h 58mn
Overall bit rate : 9 379 Kbps
Movie name : Самба / Samba (2014)
Encoded date : UTC 2015-06-12 15:24:37
Writing application : mkvmerge v5.8.0 ('No Sleep / Pillow') built on Sep 2 2012 15:37:04
Writing library : libebml v1.2.3 + libmatroska v1.3.0
Attachements : cover.png / logfile.log

Video
ID : 1
Format : AVC
Format/Info : Advanced Video Codec
Format profile : High@L4.1
Format settings, CABAC : Yes
Format settings, ReFrames : 4 frames
Codec ID : V_MPEG4/ISO/AVC
Duration : 1h 58mn
Bit rate : 8 294 Kbps
Width : 1 920 pixels
Height : 1 040 pixels
Display aspect ratio : 1.85:1
Frame rate mode : Constant
Frame rate : 24.000 fps
Color space : YUV
Chroma subsampling : 4:2:0
Bit depth : 8 bits
Scan type : Progressive
Bits/(Pixel*Frame) : 0.173
Stream size : 6.70 GiB (86%)
Title : Самба / Samba (2014)
Writing library : x264 core 146 r0+2586 e393126 t_mod_Custom [8-bit@all X86_64]
Encoding settings : cabac=1 / ref=4 / deblock=1:-3:-3 / analyse=0x3:0x133 / me=esa / subme=10 / psy=1 / fade_compensate=0.00 / psy_rd=1.05:0.00 / mixed_ref=1 / me_range=32 / chroma_me=1 / trellis=2 / 8x8dct=1 / cqm=0 / deadzone=21,11 / fast_pskip=0 / chroma_qp_offset=-2 / threads=12 / lookahead_threads=3 / sliced_threads=0 / nr=0 / decimate=1 / interlaced=0 / bluray_compat=0 / constrained_intra=0 / fgo=0 / bframes=10 / b_pyramid=2 / b_adapt=2 / b_bias=0 / direct=3 / weightb=1 / open_gop=0 / weightp=2 / keyint=240 / keyint_min=24 / scenecut=40 / intra_refresh=0 / rc=2pass / mbtree=0 / bitrate=8294 / ratetol=1.0 / qcomp=0.70 / qpmin=0:0:0 / qpmax=69:69:69 / qpstep=4 / cplxblur=20.0 / qblur=0.5 / ip_ratio=1.40 / pb_ratio=1.30 / aq=1:0.70 / aq-sensitivity=10.00 / aq-factor=1.00:1.00:1.00 / aq2=0 / aq3=0
Language : French
Default : Yes
Forced : No

Audio #1
ID : 2
Format : AC-3
Format/Info : Audio Coding 3
Mode extension : CM (complete main)
Format settings, Endianness : Big
Codec ID : A_AC3
Duration : 1h 58mn
Bit rate mode : Constant
Bit rate : 448 Kbps
Channel(s) : 6 channels
Channel positions : Front: L C R, Side: L R, LFE
Sampling rate : 48.0 KHz
Bit depth : 16 bits
Compression mode : Lossy
Stream size : 379 MiB (5%)
Title : Дубляж, R5
Language : Russian
Default : Yes
Forced : No

Audio #2
ID : 3
Format : AC-3
Format/Info : Audio Coding 3
Mode extension : CM (complete main)
Format settings, Endianness : Big
Codec ID : A_AC3
Duration : 1h 58mn
Bit rate mode : Constant
Bit rate : 640 Kbps
Channel(s) : 6 channels
Channel positions : Front: L C R, Side: L R, LFE
Sampling rate : 48.0 KHz
Bit depth : 16 bits
Compression mode : Lossy
Stream size : 542 MiB (7%)
Title : French
Language : French
Default : No
Forced : No

Text
ID : 4
Format : UTF-8
Codec ID : S_TEXT/UTF8
Codec ID/Info : UTF-8 Plain Text
Title : English
Language : English
Default : No
Forced : No

Menu
00:00:00.000 : :Chapter 01
00:11:13.375 : :Chapter 02
00:19:55.250 : :Chapter 03
00:28:05.916 : :Chapter 04
00:40:49.166 : :Chapter 05
00:48:00.541 : :Chapter 06
00:58:25.333 : :Chapter 07
01:07:59.375 : :Chapter 08
01:18:09.041 : :Chapter 09
01:29:50.250 : :Chapter 10
01:40:58.958 : :Chapter 11
01:51:42.583 : :Chapter 12
x264 [info]: frame I:1129 Avg QP:15.92 size:183671
x264 [info]: frame P:40332 Avg QP:18.38 size: 78954
x264 [info]: frame B:128963 Avg QP:20.80 size: 30737
x264 [info]: consecutive B-frames: 3.1% 4.5% 13.9% 12.6% 7.7% 55.9% 1.7% 0.2% 0.2% 0.1% 0.1%
   
Торрент: Зарегистрирован [28 июн 2015, 10:24] За каждые 2 ГБ. аплоада (сидирования) этого торрента начисляется бонус: 0.001 Скачать торрент
Скачать торрент
О MediaGet
[ Размер 39.39 КБ / Просмотров 61 ]

Статус:
 
Приватный: Нет (DHT включён)
Размер: 7.75 ГБ (8 324 815 838 байт)
   
Аватара пользователя
Модератор видео
Модератор видео
 
Раздал: 9.44 ТБ
Скачал: 1 ТБ
Ратио: 9.499
Сообщения: 467
Зарегистрирован: 24 янв 2011, 10:36
Откуда: Продажа компьютерных игр STWAM
  • Личное сообщение
  • Сайт

  • Похожие торренты
    Ответы
    Просмотры
    Последнее сообщение

Вернуться в Фильмы 2016 (новинки)

Кто сейчас на конференции

Зарегистрированные пользователи: Anatoliy, cactus, fas28, sergey_tr

Ресурс не предоставляет электронные версии произведений, а занимается лишь коллекционированием и каталогизацией ссылок, присылаемых и публикуемых на форуме нашими читателями. Если вы являетесь правообладателем какого-либо представленного материала и не желаете чтобы ссылка на него находилась в нашем каталоге, свяжитесь с нами и мы незамедлительно удалим её. Файлы для обмена на трекере предоставлены пользователями сайта, и администрация не несёт ответственности за их содержание. Просьба не заливать файлы, защищенные авторскими правами, а также файлы нелегального содержания!
cron