Отель «Мэриголд». Заселение продолжается / The Second Best Exotic Marigold Hotel (2015) HDRip | Звук с TS

Киноновинки, новинки кинопроката, горячие новинки

Модератор: Модераторы видео

  • Статистика раздачи
Размер: 748.13 МБ   |  Зарегистрирован: 25 июн 2015, 22:31   |   .torrent скачан: 493 раз
Сидеров: 314  [ 0 байт/сек ]     Личеров: 54  [ 0 байт/сек ]  
Список файлов : Кто скачал : Раздают : Скачивают : Кто благодарил : История : Не раздающие : Запрашивали сидеров : Внешние трекеры 
  

Отель «Мэриголд». Заселение продолжается / The Second Best Exotic Marigold Hotel (2015) HDRip | Звук с TS

Сообщение Админ » 25 июн 2015, 22:31

Информация о фильме
Название: Отель «Мэриголд». Заселение продолжается
Оригинальное название: The Second Best Exotic Marigold Hotel
Год выпуска: 2015
Жанр: Комедия, драма
Режиссер: Джон Мэдден
В ролях: Дев Патель, Мэгги Смит, Дэнни Махони, Ричард Гир, Селия Имри, Рональд Пикап, Дэвид Стрэтэйрн, Джуди Денч, Билл Найи, Диана Хардкэсл, Сабхраджоти Барат

О фильме:
Отель «Мэриголд» не был бы экзотическим, если бы не поселил двух незнакомых друг с другом людей в один номер; и он не стал бы лучшим, если бы из этого не произошло ничего хорошего.



Выпущено: Великобритания, США / Babieka, Blueprint Pictures
Продолжительность: 02:02:40
Озвучивание: Дублированное [Звук с TS]

Файл
Формат: AVI (XviD)
Качество: HDRip
Видео: 715 kb/s, 720x304
Аудио: AC3, 128 kb/s (2 ch)
Размер: 748 MB
Скачать: Сэмпл


General
Complete name : C:UsersuserDesktopOtel.MeriGold.2.2015.Dt.HDRip.700MB.avi
Format : AVI
Format/Info : Audio Video Interleave
File size : 748 MiB
Duration : 2h 2mn
Overall bit rate : 853 Kbps
Movie name : Otel.MeriGold.2.2015.Dt.HDRip.748MB.ELEKTRI4KA.uniongang.tv
Writing application : VirtualDubMod 1.5.10.3 | http://www.virtualdub-fr.org || (build 2550/release)
Copyright : UNIONGANG&RUSTORRENTS

Video
ID : 0
Format : MPEG-4 Visual
Format profile : Advanced Simple@L5
Format settings, BVOP : 2
Format settings, QPel : No
Format settings, GMC : No warppoints
Format settings, Matrix : Default (MPEG)
Muxing mode : Packed bitstream
Codec ID : XVID
Codec ID/Hint : XviD
Duration : 2h 2mn
Bit rate : 715 Kbps
Width : 720 pixels
Height : 304 pixels
Display aspect ratio : 2.35:1
Frame rate : 23.976 fps
Color space : YUV
Chroma subsampling : 4:2:0
Bit depth : 8 bits
Scan type : Progressive
Compression mode : Lossy
Bits/(Pixel*Frame) : 0.136
Stream size : 628 MiB (84%)
Writing library : XviD 1.2.1 (UTC 2008-12-04)

Audio
ID : 1
Format : AC-3
Format/Info : Audio Coding 3
Mode extension : CM (complete main)
Format settings, Endianness : Big
Codec ID : 2000
Duration : 2h 2mn
Bit rate mode : Constant
Bit rate : 128 Kbps
Channel(s) : 2 channels
Channel positions : Front: L R
Sampling rate : 48.0 KHz
Bit depth : 16 bits
Compression mode : Lossy
Stream size : 112 MiB (15%)
Alignment : Split accross interleaves
Interleave, duration : 42 ms (1.00 video frame)
Interleave, preload duration : 500 ms








Посмотрел фильм на пресс-показе в кинотеатре «Москва».

А как мы рады, что вы будете рады (с)

Дела в отеле «Мэриголд» идут так хорошо, что его владелец Санни решает расширяться и прикупить еще один отель. А постояльцы «Лучшего из экзотических» успевают не только работать и наслаждаться индийскими красотами, но и строить отношения, несмотря на возраст.

Джон Мэдден — профессионал, которому удается делать интересные картины, строящиеся на диалогах и актерах. Режиссер «Доказательства», «Влюбленного Шекспира» и недавних «Мастеров секса» просто не умеет делать разговорные картины плохо, тем более после такого оглушительного успеха первой картины и того, что каждый, кто прикоснулся к проекту, захотел незамедлительно вернуться.

Режиссер и продюсеры пошли на дерзкий шаг, они стали продолжать историю без книжной основы. Первая часть была основана на романе Деборы Моггак, которая создала удивительный мир и оригинальных героев. Сценарист, помогавший ей с адаптацией, решил в одиночку написать сюжет продолжения. Ол Паркер с большой любовью и ответственностью подошел к рукописи, ведь всем было безумно интересно узнать, что будет происходить с героями дальше. Количество юмора и сарказма в картине возросло, а драма подается все также мягко и безболезненно.

Основной костяк актерского состава с большим интересом согласился вернуться в проект. Всем им сценарист уделил достаточно времени, а многим (мать Санни и его невестка) уделил значительно больше времени, чем в первый раз. Дев Патель вытянул счастливый билет, ведь в этом году ему везет, его Санни стал еще более эксцентричным и шальным, т. к. в финале он должен не только жениться, но и танцевать. Ричард Гир и Дэвид Стрэтэйрн достойно вошли в состав и существенно усилили его.

Бен Смитхард усложнил работу Бена Дэвиса. Сделав еще больший акцент на достопримечательностях Индии и разнице в съемках между общими кадрами и диалогами героев.

Томас Ньюман вернулся к написанию музыки к продолжению. Саундтрек вышел впечатляющим и исключительно индийским.

«Отель «Мэриголд». Заселение продолжается» — один из немногих сиквелов, который по уровню не уступает оригиналу, а иногда даже и превосходит его. Это еще и проект, который способен привлечь внимание не только тех, кто постоянно ходит в кинотеатры, но и людей, которые давно считают, что смотреть им там нечего.


   
Торрент: Зарегистрирован [25 июн 2015, 22:31] Скачать торрент
Скачать торрент
О MediaGet
[ Размер 15.36 КБ / Просмотров 29 ]

Статус:
 
Приватный: Нет (DHT включён)
Размер: 748.13 МБ (784 472 064 байт)
   
Аватара пользователя

Администратор
Администратор
 
Раздал: 2.3 ПБ
Скачал: 1.01 ПБ
Ратио: 2.268
Сообщения: 2977
Зарегистрирован: 07 май 2010, 17:29
Medals: 1
Лучший релиз за месяц (1)
  • Личное сообщение
  • ICQ

  • Похожие торренты
    Ответы
    Просмотры
    Последнее сообщение

Вернуться в Фильмы 2016 (новинки)

Кто сейчас на конференции

Зарегистрированные пользователи: sergey_tr, ЗУРБАГАН

Ресурс не предоставляет электронные версии произведений, а занимается лишь коллекционированием и каталогизацией ссылок, присылаемых и публикуемых на форуме нашими читателями. Если вы являетесь правообладателем какого-либо представленного материала и не желаете чтобы ссылка на него находилась в нашем каталоге, свяжитесь с нами и мы незамедлительно удалим её. Файлы для обмена на трекере предоставлены пользователями сайта, и администрация не несёт ответственности за их содержание. Просьба не заливать файлы, защищенные авторскими правами, а также файлы нелегального содержания!
cron