Нити / Strіngs (Даниэль Дуран / Daniel Duran) [2015, США,драма, музыка, WEB-DLRip] VO (Виктор Береговых)

Киноновинки, новинки кинопроката, горячие новинки

Модератор: Модераторы видео

  • Статистика раздачи
Размер: 1.46 ГБ   |  Зарегистрирован: 16 июн 2015, 10:47   |   .torrent скачан: 0 раз
Сидеров: 0  [ 0 байт/сек ]     Личеров: 0  [ 0 байт/сек ]  
Список файлов : Кто скачал : Раздают : Скачивают : Кто благодарил : История : Не раздающие : Запрашивали сидеров : Внешние трекеры 
  

Нити / Strіngs (Даниэль Дуран / Daniel Duran) [2015, США,драма, музыка, WEB-DLRip] VO (Виктор Береговых)

Сообщение Админ » 16 июн 2015, 10:47

Нити / Strіngs

Страна: США
Жанр: драма, музыка

Год выпуска: 2015
Продолжительность: 01:53:47

Перевод: Одноголосый (закадровый) [Виктор Береговых]
Оригинальная аудиодорожка: нет
Cубтитры: нет

Режиссер: Даниэль Дуран / Daniel Duran

В ролях: Мария Белло, Джош Дюамель, Лора Дерн, Лукас Тилл, Том Эверетт Скотт, Джей Хед, Катрина Норма, Керингтон Пэйн, Шамир Андерсон, Sharlene Taulé

Описание: Джош живет в Нью-Йорке и больше всего на свете любит музыку. После неприятного инцидента, однако, он вынужден покинуть город и переехать в провинциальный городок. Мало того, что здесь ничего не происходит , так еще скоро выясняется что почти у всех жителей здесь тяжелое прошлое...



Качество: WEB-DLRip
Контейнер: AVI
Видео: 704x288 (2.44:1), 23.976 fps, XviD build 50 ~1641 kbps avg, 0.34 bit/pixel
Аудио: 48 kHz, AC3 Dolby Digital, 2/0 (L,R) ch, ~192 kbps
Общее
Полное имя : D:\Мои рипы\Нити_WEB-DLRip_1400_Некул.avi
Формат : AVI
Формат/Информация : Audio Video Interleave
Размер файла : 1,46 Гбайт
Продолжительность : 1 ч. 53 м.
Общий поток : 1843 Кбит/сек
Программа кодирования : VirtualDubMod 1.5.10.3 | http://www.virtualdub-fr.org || (build 2550/release)
Библиотека кодирования : VirtualDubMod build 2550/release

Видео
Идентификатор : 0
Формат : MPEG-4 Visual
Профиль формата : Advanced Simple@L5
Параметр BVOP формата : 1
Параметр QPel формата : Нет
Параметр GMC формата : Без точки перехода
Параметр матрицы формата : Default (MPEG)
Идентификатор кодека : XVID
Идентификатор кодека/Подсказка : XviD
Продолжительность : 1 ч. 53 м.
Битрейт : 1642 Кбит/сек
Ширина : 704 пикселя
Высота : 288 пикселей
Соотношение сторон : 2,40:1
Частота кадров : 23,976 кадра/сек
Цветовое пространство : YUV
Субдискретизация насыщенности : 4:2:0
Битовая глубина : 8 бит
Тип развёртки : Прогрессивная
Метод сжатия : С потерями
Бит/(Пиксели*Кадры) : 0.338
Размер потока : 1,30 Гбайт (89%)
Библиотека кодирования : XviD 1.2.1 (UTC 2008-12-04)

Аудио
Идентификатор : 1
Формат : AC-3
Формат/Информация : Audio Coding 3
Расширение режима : CM (complete main)
Параметр Endianness формата : Big
Идентификатор кодека : 2000
Продолжительность : 1 ч. 53 м.
Вид битрейта : Постоянный
Битрейт : 192 Кбит/сек
Каналы : 2 канала
Расположение каналов : Front: L R
Частота : 48,0 КГц
Битовая глубина : 16 бит
Метод сжатия : С потерями
Размер потока : 156 Мбайт (10%)
Выравнивание : Разделение по промежуткам
Продолжительность промежутка : 42 мс. (1,00 видеокадр)
Время предзагрузки промежутка : 500 мс.
[
   
Торрент: Зарегистрирован [16 июн 2015, 10:47] Скачать торрент
Скачать торрент
О MediaGet
[ Размер 15.26 КБ / Просмотров 24 ]

Статус:
 
Приватный: Нет (DHT включён)
Размер: 1.46 ГБ (1 572 970 496 байт)
   
Аватара пользователя

Администратор
Администратор
 
Раздал: 2.29 ПБ
Скачал: 1.01 ПБ
Ратио: 2.264
Сообщения: 2947
Зарегистрирован: 07 май 2010, 17:29
Medals: 1
Лучший релиз за месяц (1)
  • Личное сообщение
  • ICQ

Вернуться в Фильмы 2016 (новинки)

Кто сейчас на конференции

Зарегистрированные пользователи: Dimkinzx, Dom_777, EAst, prince1104, s19802005

Ресурс не предоставляет электронные версии произведений, а занимается лишь коллекционированием и каталогизацией ссылок, присылаемых и публикуемых на форуме нашими читателями. Если вы являетесь правообладателем какого-либо представленного материала и не желаете чтобы ссылка на него находилась в нашем каталоге, свяжитесь с нами и мы незамедлительно удалим её. Файлы для обмена на трекере предоставлены пользователями сайта, и администрация не несёт ответственности за их содержание. Просьба не заливать файлы, защищенные авторскими правами, а также файлы нелегального содержания!
cron