Ночной беглец / Run All Night (2015) WEB-DL [H.264/1080p-LQ] [Line]

Киноновинки, новинки кинопроката, горячие новинки

Модератор: Модераторы видео

  • Статистика раздачи
Размер: 4.15 ГБ   |  Зарегистрирован: 03 июн 2015, 11:13   |   .torrent скачан: 13 раз
Сидеров: 392  [ 0 байт/сек ]     Личеров: 27  [ 0 байт/сек ]  
Список файлов : Кто скачал : Раздают : Скачивают : Кто благодарил : История : Не раздающие : Запрашивали сидеров : Внешние трекеры 
  

Ночной беглец / Run All Night (2015) WEB-DL [H.264/1080p-LQ] [Line]

Сообщение Боцман » 03 июн 2015, 11:13

Ночной беглец / Run All Night (2015) WEB-DL [H.264/1080p-LQ]
«Одна ночь, чтобы свести счёты»

Производство: США / Energy Entertainment, RatPac-Dune Entertainment, Vertigo
Жанр: боевик, криминал, драма

Режиссер: Хауме Кольет-Серра
Продюсер: Рой Ли, Майкл Тадросс, Бруклин Уивер
Актеры: Лиам Нисон, Юэль Киннаман, Дженезис Родригез, Бойд Холбрук, Винсент Д’Онофрио, Коммон, Эд Харрис, Холт МакКэллани, Брюс МакГилл, Бо Напп

Описание:
Фильм расскажет историю киллера, вступившего в конфликт с бывшим боссом и в итоге вынужденного пуститься в бега, чтобы защитить свою семью от преследования мафией и властями...


Рейтинг MPAA: R - Детям до 17 лет обязательно присутствие родителей
Дата мировой премьеры: 11 марта 2015
Дата российской премьеры: 16 апреля 2015, «Каро-Премьер»
Дата выхода Blu-Ray релиза: 20 августа 2015, «CP Дистрибуция»
Дата выхода DVD релиза: 20 августа 2015, «CP Дистрибуция»

Продолжительность: 01:54:18
Качество: WEB-DL (1080p)

Перевод: профессиональный (полное дублирование)
Примечание: присутствуют около 6 минут вставок звука с TS
Вид субтитров: вшитые, отключаемые
Язык субтитров: английский

Видео: MPEG-4 AVC/H.264, 1912x792 (2,40:1), 4 326 kbps, 23.976 fps, 0.119 b/px
Аудио # 1: АС3, 2 ch, 384 kbps, 48 000 Hz - дублированный - Чистый звук
Аудио # 2: АС3, 6 ch, 384 kbps, 48 000 Hz - оригинальный
Код:
Код: Выделить всё
Общее
Уникальный идентификатор                 : 205819282372031224926280002148695483282 (0x9AD75A1676895C07A3278D92E80F2392)
Полное имя                               : F:\[2015] Ночной беглец [WEB-DL] [1080p].mkv
Формат                                   : Matroska
Версия формата                           : Version 4 / Version 2
Размер файла                             : 4,15 Гбайт
Продолжительность                        : 1 ч. 54 м.
Общий поток                              : 5198 Кбит/сек
Название фильма                          : Ночной беглец / Run All Night (2015) WEB-DL [1080p]
Дата кодирования                         : UTC 2015-06-02 11:49:27
Программа кодирования                    : mkvmerge v7.8.0 ('River Man') 32bit built on Mar 27 2015 16:18:02
Библиотека кодирования                   : libebml v1.3.1 + libmatroska v1.4.2
_STATISTICS_WRITING_APP                  : mkvmerge v7.8.0 ('River Man') 32bit built on Mar 27 2015 16:18:02
_STATISTICS_WRITING_DATE_UTC             : 2015-06-02 11:49:27
_STATISTICS_TAGS                         : BPS DURATION NUMBER_OF_FRAMES NUMBER_OF_BYTES
DURATION                                 : 01:47:06.758000000
NUMBER_OF_FRAMES                         : 1050
NUMBER_OF_BYTES                          : 42766

Видео
Идентификатор                            : 1
Формат                                   : AVC
Формат/Информация                        : Advanced Video Codec
Профиль формата                          : High@L4
Параметр CABAC формата                   : Да
Параметр ReFrames формата                : 5 кадров
Идентификатор кодека                     : V_MPEG4/ISO/AVC
Продолжительность                        : 1 ч. 54 м.
Битрейт                                  : 4326 Кбит/сек
Ширина                                   : 1912 пикселей
Высота                                   : 792 пикселя
Соотношение сторон                       : 2,40:1
Режим частоты кадров                     : Постоянный
Частота кадров                           : 23,976 кадра/сек
Цветовое пространство                    : YUV
Субдискретизация насыщенности            : 4:2:0
Битовая глубина                          : 8 бит
Тип развёртки                            : Прогрессивная
Бит/(Пиксели*Кадры)                      : 0.119
Размер потока                            : 3,45 Гбайт (83%)
Заголовок                                : [2015] Ночной беглец / Run All Night [WEB-DL] [1080p]
Язык                                     : English
Default                                  : Да
Forced                                   : Нет
Цветовой диапазон                        : Limited
Основные цвета                           : BT.709
Характеристики трансфера                 : BT.709
Коэффициенты матрицы                     : BT.709

Аудио #1
Идентификатор                            : 2
Формат                                   : AC-3
Формат/Информация                        : Audio Coding 3
Расширение режима                        : CM (complete main)
Параметр Endianness формата              : Big
Идентификатор кодека                     : A_AC3
Продолжительность                        : 1 ч. 54 м.
Вид битрейта                             : Постоянный
Битрейт                                  : 384 Кбит/сек
Каналы                                   : 2 канала
Расположение каналов                     : Front: L R
Частота                                  : 48,0 КГц
Метод сжатия                             : С потерями
Размер потока                            : 314 Мбайт (7%)
Заголовок                                : Дублированный - Чистый звук
Язык                                     : Russian
Default                                  : Да
Forced                                   : Нет

Аудио #2
Идентификатор                            : 3
Формат                                   : AC-3
Формат/Информация                        : Audio Coding 3
Расширение режима                        : CM (complete main)
Параметр Endianness формата              : Big
Идентификатор кодека                     : A_AC3
Продолжительность                        : 1 ч. 54 м.
Вид битрейта                             : Постоянный
Битрейт                                  : 384 Кбит/сек
Каналы                                   : 6 каналов
Расположение каналов                     : Front: L C R, Side: L R, LFE
Частота                                  : 48,0 КГц
Метод сжатия                             : С потерями
Размер потока                            : 314 Мбайт (7%)
Заголовок                                : Оригинальный
Язык                                     : English
Default                                  : Нет
Forced                                   : Нет

Текст
Идентификатор                            : 4
Формат                                   : UTF-8
Идентификатор кодека                     : S_TEXT/UTF8
Идентификатор кодека/Информация          : UTF-8 Plain Text
Заголовок                                : English
Язык                                     : English
Default                                  : Нет
Forced                                   : Нет

Меню
00:00:00.000                             : en:1
00:09:02.000                             : en:2
00:20:31.000                             : en:3
00:29:23.000                             : en:4
00:41:16.000                             : en:5
00:50:29.000                             : en:6
01:01:35.000                             : en:7
01:10:56.000                             : en:8
01:19:51.000                             : en:9
01:34:13.000                             : en:10
01:39:08.000                             : en:11
01:48:38.000                             : en:12
*** Практически все сцены с участием Ника Нолти были вырезаны из финальной версии фильма, и в итоге его эпизодическое появление даже не упомянули в титрах.
*** В реальной жизни двоих сыновей Лиама Нисона зовут так же, как и двух мальчиков в фильме — Майкл и Даниэль.
*** В сцене уличной погони Джимми пробегает мимо афиши фильма «Безумный Макс: Дорога ярости» (2015).
*** На газете The New York Post видна дата: четверг, 23 сентября 1996 года. На самом деле 23 сентября 1996 года было понедельником.
*** Рубашка Джима, во время разговора с сыном, то расстегивается, то застегивается.

Скриншоты:

   
Торрент: Зарегистрирован [03 июн 2015, 11:13] Скачать торрент
Скачать торрент
О MediaGet
[ Размер 11.13 КБ / Просмотров 45 ]

Статус:
 
Приватный: Нет (DHT включён)
Размер: 4.15 ГБ (4 456 284 251 байт)
   
Хочешь стать частью команды MZ-Tracker?
Запишись
ТУТ
Аватара пользователя

Супермодератор
Супермодератор
 
Раздал: 12.57 ГБ
Скачал: 907.51 ГБ
Ратио: 0.017
Сообщения: 4359
Фото: 292
Зарегистрирован: 19 июн 2008, 23:00

  • Похожие торренты
    Ответы
    Просмотры
    Последнее сообщение

Вернуться в Фильмы 2016 (новинки)

Кто сейчас на конференции

Зарегистрированные пользователи: sergey_tr, ЗУРБАГАН

Ресурс не предоставляет электронные версии произведений, а занимается лишь коллекционированием и каталогизацией ссылок, присылаемых и публикуемых на форуме нашими читателями. Если вы являетесь правообладателем какого-либо представленного материала и не желаете чтобы ссылка на него находилась в нашем каталоге, свяжитесь с нами и мы незамедлительно удалим её. Файлы для обмена на трекере предоставлены пользователями сайта, и администрация не несёт ответственности за их содержание. Просьба не заливать файлы, защищенные авторскими правами, а также файлы нелегального содержания!
cron