Белый Бог / Feher isten (2014) WEBRip [Line]

Киноновинки, новинки кинопроката, горячие новинки

Модератор: Модераторы видео

  • Статистика раздачи
Размер: 1.46 ГБ   |  Зарегистрирован: 05 май 2015, 21:07   |   .torrent скачан: 12 раз
Сидеров: 117  [ 0 байт/сек ]     Личеров: 2  [ 0 байт/сек ]  
Список файлов : Кто скачал : Раздают : Скачивают : Кто благодарил : История : Не раздающие : Запрашивали сидеров : Внешние трекеры 
  

Белый Бог / Feher isten (2014) WEBRip [Line]

Сообщение Боцман » 05 май 2015, 21:07

Белый Бог / Feher isten (2014) WEBRip

Производство: Венгрия, Германия, Швеция
Жанр: Драма

Режиссер: Корнел Мундруцо
Продюсер: Эстер Дьярфаш, Виктория Петраньи, Мальте Форселл
Актеры: Жофия Псотта, Шандор Жотер, Лили Хорват, Сабольч Туроци, Лили Монори, Гергей Банки, Тамаш Полгар, Карой Ашер, Эрика Боднар, Боди

Описание фильма:
Главная героиня после отъезда матери в Австралию осталась с отцом, а отец не рад ее собаке Хагену. К тому же, пес не поставлен на учет, и за ним начинает охоту санитарная инспекция. Сбежав от хозяйки, Хаген переживает серию передряг, а потом оказывается в собачьем приюте, где поднимает восстание против бесчеловечности тех, кто там работает.

Перевод: Профессиональный многоголосый (чистый звук)



Дата российской премьеры: 12 февраля 2015

Продолжительность: 01:56:01
Качество видео: WEBRip

Видеокодек: XviD
Битрейт видео: ~1405 Кбит/с
Размер кадра: 720x304
Аудиокодек: AC3 2 ch
Битрейт аудио: 384 Кбит/с
Общее
Полное имя : C:\NNM\Белый Бог\Belyj Bog 2014 WEBRip.avi
Формат : AVI
Формат/Информация : Audio Video Interleave
Размер файла : 1,46 Гбайт
Продолжительность : 1 ч. 56 м.
Общий поток : 1799 Кбит/сек
Программа кодирования : VirtualDubMod 1.5.10.3 | www.virtualdub-fr.org || (build 2550/release)

Видео
Идентификатор : 0
Формат : MPEG-4 Visual
Профиль формата : Advanced Simple@L5
Параметр BVOP формата : 2
Параметр QPel формата : Нет
Параметр GMC формата : Без точки перехода
Параметр матрицы формата : Default (MPEG)
Режим смешивания : Сжатый битовый поток
Идентификатор кодека : XVID
Идентификатор кодека/Подсказка : XviD
Продолжительность : 1 ч. 56 м.
Битрейт : 1405 Кбит/сек
Ширина : 720 пикселей
Высота : 304 пикселя
Соотношение сторон : 2,35:1
Частота кадров : 25,000 кадров/сек
Цветовое пространство : YUV
Субдискретизация насыщенности : 4:2:0
Битовая глубина : 8 бит
Тип развёртки : Прогрессивная
Метод сжатия : С потерями
Бит/(Пиксели*Кадры) : 0.257
Размер потока : 1,14 Гбайт (78%)
Библиотека кодирования : XviD 73

Аудио
Идентификатор : 1
Формат : AC-3
Формат/Информация : Audio Coding 3
Расширение режима : CM (complete main)
Идентификатор кодека : 2000
Продолжительность : 1 ч. 56 м.
Вид битрейта : Постоянный
Битрейт : 384 Кбит/сек
Каналы : 2 канала
Расположение каналов : Front: L R
Частота : 48,0 КГц
Битовая глубина : 16 бит
Метод сжатия : С потерями
Размер потока : 319 Мбайт (21%)
Выравнивание : Разделение по промежуткам
Продолжительность промежутка : 40 мс. (1,00 видеокадр)
Время предзагрузки промежутка : 500 мс.

Скриншоты:


Время раздачи: Круглосуточно до 10 скачавших
Свою благодарность можете выразить - нажав красную
кнопку.
   
Торрент: Зарегистрирован [05 май 2015, 21:07] Скачать торрент
Скачать торрент
О MediaGet
[ Размер 15.26 КБ / Просмотров 47 ]

Статус:
 
Приватный: Нет (DHT включён)
Размер: 1.46 ГБ (1 565 224 960 байт)
   
Хочешь стать частью команды MZ-Tracker?
Запишись
ТУТ
Аватара пользователя

Супермодератор
Супермодератор
 
Раздал: 12.57 ГБ
Скачал: 907.51 ГБ
Ратио: 0.017
Сообщения: 4359
Фото: 292
Зарегистрирован: 19 июн 2008, 23:00

  • Похожие торренты
    Ответы
    Просмотры
    Последнее сообщение

Re: Белый Бог / Feher isten (2014) WEBRip [Line]

Сообщение Фаромир брат » 07 май 2015, 20:59

Боцман писал(а):Свою благодарность можете выразить - нажав красную
кнопку.

навэрно жёлтую :drinks:
Аватара пользователя

Супермодератор
Супермодератор
 
Раздал: 24.31 ТБ
Скачал: 1.7 ТБ
Ратио: 21.017
Сообщения: 7752
Фото: 123
Зарегистрирован: 26 ноя 2012, 17:20
Medals: 2
1000 раздач! (1) Меценат №2 (1)


Вернуться в Фильмы 2016 (новинки)

Кто сейчас на конференции

Зарегистрированные пользователи: Anatoliy, fas28, sergey_tr

Ресурс не предоставляет электронные версии произведений, а занимается лишь коллекционированием и каталогизацией ссылок, присылаемых и публикуемых на форуме нашими читателями. Если вы являетесь правообладателем какого-либо представленного материала и не желаете чтобы ссылка на него находилась в нашем каталоге, свяжитесь с нами и мы незамедлительно удалим её. Файлы для обмена на трекере предоставлены пользователями сайта, и администрация не несёт ответственности за их содержание. Просьба не заливать файлы, защищенные авторскими правами, а также файлы нелегального содержания!
cron