Модная штучка / After the Ball (2015) WEB-DLRip

Киноновинки, новинки кинопроката, горячие новинки

Модератор: Модераторы видео

  • Статистика раздачи
Размер: 1.46 ГБ   |  Зарегистрирован: 05 май 2015, 18:24   |   .torrent скачан: 5 раз
Сидеров: 181  [ 0 байт/сек ]     Личеров: 9  [ 0 байт/сек ]  
Список файлов : Кто скачал : Раздают : Скачивают : Кто благодарил : История : Не раздающие : Запрашивали сидеров : Внешние трекеры 
  

Модная штучка / After the Ball (2015) WEB-DLRip

Сообщение Боцман » 05 май 2015, 18:24

Модная штучка / After the Ball (2015) WEB-DLRip

Производство: Канада, Myriad Pictures, Pacific Northwest Pictures, TVA Films
Жанр: Комедия

Режиссер: Шон Гэррити
Продюсер: Дон Кармоди, Робин Крумли, Габриэлла Мартинелли
Актеры: Портия Даблдэй, Марк-Андре Гронден, Крис Нот, Лорен Холли, Натали Крилл, Анна Хопкинс, Давид Микаэль, Мими Кузык, Карло Рота, Колин Мохри

Описание:
Мечта Кейт — стать дизайнером модного дома. Но несмотря на то, что она обладает ярким талантом, она не может получить эту работу… Никто не доверяет дочери гуру розничных магазинов готовой одежды, «навеянной» теми самыми дизайнерами «Высокой моды», на которых так хочет работать Кейт. Кто же захочет иметь шпиона при рождении новых фасонов и горячих трендов? И тогда она пускается на хитрость, которая приводит ее к успеху и не только в карьере.



Возраст: 12+

Дата мировой премьеры: 27 февраля 2015
Дата премьеры в РФ: 26 марта 2015, «Экспонента»
Дата выхода DVD/Blu-ray релиза: 28 апреля 2015, «CD Land»

Продолжительность: 01:37:48
Качество видео: WEB-DLRip
Перевод: Дублированный (iTunes)
Субтитры: Отсутствуют

Видеокодек: XviD
Битрейт видео: 1739 kb/s
Размер кадра: 720x384
Аудиокодек: AC3 5.1
Битрейт аудио: 384 Kb/s
Сэмпл: Скачать
Общее
Полное имя : D:\Модная.штучка.2015.WEB-DLRip.nnm-club.avi
Формат : AVI
Формат/Информация : Audio Video Interleave
Размер файла : 1,46 Гбайт
Продолжительность : 1 ч. 37 м.
Общий поток : 2133 Кбит/сек
Программа кодирования : VirtualDubMod 1.5.10.3 | (build 2550/release)
Библиотека кодирования : VirtualDubMod build 2550/release

Видео
Идентификатор : 0
Формат : MPEG-4 Visual
Профиль формата : Advanced Simple@L5
Параметр BVOP формата : 2
Параметр QPel формата : Нет
Параметр GMC формата : Без точки перехода
Параметр матрицы формата : Default (MPEG)
Режим смешивания : Сжатый битовый поток
Идентификатор кодека : XVID
Идентификатор кодека/Подсказка : XviD
Продолжительность : 1 ч. 37 м.
Битрейт : 1739 Кбит/сек
Ширина : 720 пикселей
Высота : 384 пикселя
Соотношение сторон : 1,85:1
Частота кадров : 25,000 кадров/сек
Цветовое пространство : YUV
Субдискретизация насыщенности : 4:2:0
Битовая глубина : 8 бит
Тип развёртки : Прогрессивная
Метод сжатия : С потерями
Бит/(Пиксели*Кадры) : 0.252
Размер потока : 1,19 Гбайт (82%)
Библиотека кодирования : XviD 73

Аудио
Идентификатор : 1
Формат : AC-3
Формат/Информация : Audio Coding 3
Расширение режима : CM (complete main)
Параметр Endianness формата : Big
Идентификатор кодека : 2000
Продолжительность : 1 ч. 37 м.
Вид битрейта : Постоянный
Битрейт : 384 Кбит/сек
Каналы : 6 каналов
Расположение каналов : Front: L C R, Side: L R, LFE
Частота : 48,0 КГц
Битовая глубина : 16 бит
Метод сжатия : С потерями
Размер потока : 269 Мбайт (18%)
Выравнивание : Разделение по промежуткам
Продолжительность промежутка : 40 мс. (1,00 видеокадр)
Время предзагрузки промежутка : 500 мс.
Скриншоты:

Время раздачи: 24/7, до 5 скачавших.
   
Торрент: Зарегистрирован [05 май 2015, 18:24] Скачать торрент
Скачать торрент
О MediaGet
[ Размер 15.3 КБ / Просмотров 39 ]

Статус:
 
Приватный: Нет (DHT включён)
Размер: 1.46 ГБ (1 564 542 976 байт)
   
Хочешь стать частью команды MZ-Tracker?
Запишись
ТУТ
Аватара пользователя

Супермодератор
Супермодератор
 
Раздал: 12.57 ГБ
Скачал: 907.51 ГБ
Ратио: 0.017
Сообщения: 4359
Фото: 292
Зарегистрирован: 19 июн 2008, 23:00

Вернуться в Фильмы 2016 (новинки)

Кто сейчас на конференции

Зарегистрированные пользователи: sergey_tr, ЗУРБАГАН

cron
Ресурс не предоставляет электронные версии произведений, а занимается лишь коллекционированием и каталогизацией ссылок, присылаемых и публикуемых на форуме нашими читателями. Если вы являетесь правообладателем какого-либо представленного материала и не желаете чтобы ссылка на него находилась в нашем каталоге, свяжитесь с нами и мы незамедлительно удалим её. Файлы для обмена на трекере предоставлены пользователями сайта, и администрация не несёт ответственности за их содержание. Просьба не заливать файлы, защищенные авторскими правами, а также файлы нелегального содержания!
cron