Kingsman: Секретная служба / Kingsman: The Secret Service (2014) HDTVRip [H.264/1080p-LQ] [Line]

Киноновинки, новинки кинопроката, горячие новинки

Модератор: Модераторы видео

  • Статистика раздачи
Размер: 4.63 ГБ   |  Зарегистрирован: 04 май 2015, 12:17   |   .torrent скачан: 54 раз
Сидеров: 1947  [ 0 байт/сек ]     Личеров: 38  [ 0 байт/сек ]  
Список файлов : Кто скачал : Раздают : Скачивают : Кто благодарил : История : Не раздающие : Запрашивали сидеров : Внешние трекеры 
  

Kingsman: Секретная служба / Kingsman: The Secret Service (2014) HDTVRip [H.264/1080p-LQ] [Line]

Сообщение Боцман » 04 май 2015, 12:17

Kingsman: Секретная служба / Kingsman: The Secret Service (2014) HDTV [H.264/1080p-LQ]

Производство: Великобритания, Twentieth Century Fox Film Corporation, Marv Films, TSG Entertainment
Жанр: боевик, Комедия, Криминал, Приключения

Режиссер: Мэттью Вон
Продюсер: Адам Болинг, Дэвид Рейд, Мэттью Вон
Актеры: Тэрон Эджертон, Колин Фёрт, Сэмюэл Л. Джексон, Марк Стронг, Софи Куксон, Майкл Кейн, София Бутелла, Саманта Янус, Джофф Белл, Марк Хэмилл

Описание:
Эггси — молодой парень, который прошел службу в морской пехоте и имеет очень высокий уровень интеллекта. Он мог бы добиться многого, но выбрал другой путь и стал мелким преступником. Однажды он знакомится с Гарри Хартом, которому его отец когда-то спас жизнь. Этот человек решил сделать все возможное, чтобы сделать жизнь Эггси лучше и открыть для него новые возможности. Гарри рассказал ему, что является агентом секретной независимой организации, которая стоит на защите всего мира. Он предложил парню пройти обучение и стать новым членом их команды. Эггси принял предложение Харта, но сможет ли он справиться со всеми испытаниями и оправдать его надежды?..



Рейтинг MPAA: R
Возраст: 18+

Дата мировой премьеры: 13 декабря 2014
Дата Российской премьеры: 12 февраля 2015
Релиз на DVD: 11 июня 2015, «Двадцатый Век Фокс СНГ»
Релиз на Blu-Ray: 11 июня 2015, «Двадцатый Век Фокс СНГ»

Продолжительность: 02:08:15
Качество видео: HDTV
Перевод: Дублированный (Чистый звук) Официальный
Вид субтитров: Вшитые неотключаемые
Язык субтитров: Корейский
Примечание: Присутствует около 6 минут вставок звука с TS

Видеокодек: MPEG-4 AVC/H.264
Битрейт видео: 4549 kb/s
Размер кадра: 1920x1080
Аудио »1: 44.1 kHz, AC3 Dolby Digital, 2/0 (L,R) ch, ~192 kbps (Русский) / Дубляж
Аудио »2: 44.1 kHz, AC3 Dolby Digital, 2/0 (L,R) ch, ~320 kbps (Английский) / Оригинал
Сэмпл: Скачать
Общее
Уникальный идентификатор : 231423899510673143686764152883265983526 (0xAE1A9F2DB968EEBDBFCE2090C380D426)
Полное имя : D:\Kingsman.Секретная.служба.2015.HDTV.[1080p].NNM-CLUB.mkv
Формат : Matroska
Версия формата : Version 2
Размер файла : 4,63 Гбайт
Продолжительность : 2 ч. 8 м.
Общий поток : 5163 Кбит/сек
Название фильма : Kingsman.Секретная.служба.2015.HDTV.[1080p].NNM-CLUB
Дата кодирования : UTC 2015-05-01 14:19:49
Программа кодирования : mkvmerge v4.9.1 ('Ich will') сборка от Jul 11 2011 23:53:15
Библиотека кодирования : Lavf55.48.101

Видео
Идентификатор : 1
Формат : AVC
Формат/Информация : Advanced Video Codec
Профиль формата : Baseline@L4
Параметр CABAC формата : Нет
Параметр ReFrames формата : 1 кадр
Идентификатор кодека : V_MPEG4/ISO/AVC
Продолжительность : 2 ч. 8 м.
Битрейт : 4549 Кбит/сек
Ширина : 1920 пикселей
Высота : 1080 пикселей
Соотношение сторон : 16:9
Режим частоты кадров : Постоянный
Частота кадров : 29,970 кадров/сек
Цветовое пространство : YUV
Субдискретизация насыщенности : 4:2:0
Битовая глубина : 8 бит
Тип развёртки : Прогрессивная
Бит/(Пиксели*Кадры) : 0.073
Размер потока : 4,07 Гбайт (88%)
Заголовок : nnm-club
Библиотека кодирования : x264 core 142
Настройки программы : opencl=1 / cabac=0 / ref=1 / deblock=1:0:0 / analyse=0x1:0x111 / me=hex / subme=2 / psy=1 / psy_rd=1.00:0.00 / mixed_ref=0 / me_range=16 / chroma_me=1 / trellis=0 / 8x8dct=0 / cqm=0 / deadzone=21,11 / fast_pskip=1 / chroma_qp_offset=0 / threads=6 / lookahead_threads=2 / sliced_threads=0 / nr=0 / decimate=1 / interlaced=0 / bluray_compat=0 / constrained_intra=0 / bframes=0 / weightp=0 / keyint=250 / keyint_min=25 / scenecut=40 / intra_refresh=0 / rc=cqp / mbtree=0 / qp=23 / ip_ratio=1.40 / aq=0
Default : Да
Forced : Нет
DURATION : 02:08:15.020000000
NUMBER_OF_FRAMES : 230619
NUMBER_OF_BYTES : 4471380567
_STATISTICS_WRITING_APP : mkvmerge v7.8.0 ('River Man') 64bit built on Mar 27 2015 16:31:37
_STATISTICS_WRITING_DATE_UTC : 2015-04-30 01:01:15
_STATISTICS_TAGS : BPS DURATION NUMBER_OF_FRAMES NUMBER_OF_BYTES

Аудио #1
Идентификатор : 2
Формат : AC-3
Формат/Информация : Audio Coding 3
Расширение режима : CM (complete main)
Параметр Endianness формата : Big
Идентификатор кодека : A_AC3
Продолжительность : 2 ч. 8 м.
Вид битрейта : Постоянный
Битрейт : 192 Кбит/сек
Каналы : 2 канала
Расположение каналов : Front: L R
Частота : 44,1 КГц
Битовая глубина : 16 бит
Метод сжатия : С потерями
Размер потока : 176 Мбайт (4%)
Заголовок : Line
Язык : Russian
Default : Да
Forced : Нет
DURATION : 02:08:15.005000000
NUMBER_OF_FRAMES : 220931
NUMBER_OF_BYTES : 307800468
_STATISTICS_WRITING_APP : mkvmerge v7.8.0 ('River Man') 64bit built on Mar 27 2015 16:31:37
_STATISTICS_WRITING_DATE_UTC : 2015-04-30 01:01:15
_STATISTICS_TAGS : BPS DURATION NUMBER_OF_FRAMES NUMBER_OF_BYTES

Аудио #2
Идентификатор : 3
Формат : AC-3
Формат/Информация : Audio Coding 3
Расширение режима : CM (complete main)
Параметр Endianness формата : Big
Идентификатор кодека : A_AC3
Продолжительность : 2 ч. 8 м.
Вид битрейта : Постоянный
Битрейт : 320 Кбит/сек
Каналы : 2 канала
Расположение каналов : Front: L R
Частота : 44,1 КГц
Битовая глубина : 16 бит
Метод сжатия : С потерями
Задержка видео : 18 мс.
Размер потока : 294 Мбайт (6%)
Заголовок : Original
Язык : English
Default : Нет
Forced : Нет
Скриншоты:

Время раздачи: 24/7,
до 5 скачавших.
   
Торрент: Зарегистрирован [04 май 2015, 12:17] Скачать торрент
Скачать торрент
О MediaGet
[ Размер 23.94 КБ / Просмотров 132 ]

Статус:
 
Приватный: Нет (DHT включён)
Размер: 4.63 ГБ (4 966 439 456 байт)
   
Хочешь стать частью команды MZ-Tracker?
Запишись
ТУТ
Аватара пользователя

Супермодератор
Супермодератор
 
Раздал: 12.57 ГБ
Скачал: 907.51 ГБ
Ратио: 0.017
Сообщения: 4359
Фото: 292
Зарегистрирован: 19 июн 2008, 23:00

Вернуться в Фильмы 2016 (новинки)

Кто сейчас на конференции

Зарегистрированные пользователи: sergey_tr, ЗУРБАГАН

Ресурс не предоставляет электронные версии произведений, а занимается лишь коллекционированием и каталогизацией ссылок, присылаемых и публикуемых на форуме нашими читателями. Если вы являетесь правообладателем какого-либо представленного материала и не желаете чтобы ссылка на него находилась в нашем каталоге, свяжитесь с нами и мы незамедлительно удалим её. Файлы для обмена на трекере предоставлены пользователями сайта, и администрация не несёт ответственности за их содержание. Просьба не заливать файлы, защищенные авторскими правами, а также файлы нелегального содержания!
cron