Исчезновение / VANish (2015) HDRip

Киноновинки, новинки кинопроката, горячие новинки

Модератор: Модераторы видео

  • Статистика раздачи
Размер: 1.36 ГБ   |  Зарегистрирован: 04 май 2015, 12:16   |   .torrent скачан: 19 раз
Сидеров: 67  [ 0 байт/сек ]     Личеров: 0  [ 0 байт/сек ]  
Список файлов : Кто скачал : Раздают : Скачивают : Кто благодарил : История : Не раздающие : Запрашивали сидеров : Внешние трекеры 
  

Исчезновение / VANish (2015) HDRip

Сообщение Боцман » 04 май 2015, 12:16

Исчезновение / VANish (2015) HDRip

Производство: США
Жанр: Триллер, боевик

Режиссер: Брайан Бокбрейдер
Продюсер: Брайан Бокбрейдер, Лена Бэнкс, Томас Фриман
Актеры: Майра Уолш, Тони Тодд, Дэнни Трехо, Брайан Бокбрейдер, Адам Гатри, Денис Дорадо, Эсперанса Диас, Анджела Робитейлл, Джо Дэвис, Майкл Мендоза

Описание фильма:
Похищенная молодая девушка едет в фургоне с полными отморозками. Парни даже и не предполагали что вот так всё обернется, узнав что эта девушка дочь мексиканского наркобарона…



Дата мировой премьеры: 24 февраля 2015

Продолжительность: 01:19:40
Качество видео: HDRip
Перевод: Любительский двухголосый (ColdFilm)
Внимание: Присутствует ненормативная лексика !

Видео: XviD, 720x304, 2250 Кбит/с
Аудио: MP3, 2 ch, 192 Кбит/с

Общее
Полное имя : C:\NNM\Исчезновение\Vanish 2015 HDRip.avi
Формат : AVI
Формат/Информация : Audio Video Interleave
Размер файла : 1,36 Гбайт
Продолжительность : 1 ч. 19 м.
Общий поток : 2451 Кбит/сек
Программа кодирования : VirtualDubMod 1.5.10.2 (build 2540/release)
Библиотека кодирования : VirtualDubMod build 2540/release

Видео
Идентификатор : 0
Формат : MPEG-4 Visual
Профиль формата : Advanced Simple@L5
Параметр BVOP формата : 4
Параметр QPel формата : Нет
Параметр GMC формата : 3 точки перехода
Параметр матрицы формата : Default (MPEG)
Идентификатор кодека : XVID
Идентификатор кодека/Подсказка : XviD
Продолжительность : 1 ч. 19 м.
Битрейт : 2250 Кбит/сек
Ширина : 720 пикселей
Высота : 304 пикселя
Соотношение сторон : 2,35:1
Частота кадров : 23,976 кадра/сек
Цветовое пространство : YUV
Субдискретизация насыщенности : 4:2:0
Битовая глубина : 8 бит
Тип развёртки : Прогрессивная
Метод сжатия : С потерями
Бит/(Пиксели*Кадры) : 0.429
Размер потока : 1,25 Гбайт (92%)
Библиотека кодирования : XviD 1.2.1 (UTC 2008-12-04)

Аудио
Идентификатор : 1
Формат : MPEG Audio
Версия формата : Version 1
Профиль формата : Layer 3
Режим : Joint stereo
Расширение режима : MS Stereo
Идентификатор кодека : 55
Идентификатор кодека/Подсказка : MP3
Продолжительность : 1 ч. 19 м.
Вид битрейта : Постоянный
Битрейт : 192 Кбит/сек
Каналы : 2 канала
Частота : 48,0 КГц
Метод сжатия : С потерями
Размер потока : 109 Мбайт (8%)
Выравнивание : Соединение по промежуткам
Продолжительность промежутка : 42 мс. (1,00 видеокадр)
Время предзагрузки промежутка : 504 мс.
Библиотека кодирования : LAME3.99.5

Скриншоты:

Время раздачи:
Круглосуточно до 10 скачавших
Свою благодарность можете выразить - нажав красную
кнопку.
   
Торрент: Зарегистрирован [04 май 2015, 12:16] Скачать торрент
Скачать торрент
О MediaGet
[ Размер 14.32 КБ / Просмотров 38 ]

Статус:
 
Приватный: Нет (DHT включён)
Размер: 1.36 ГБ (1 464 844 288 байт)
   
Хочешь стать частью команды MZ-Tracker?
Запишись
ТУТ
Аватара пользователя

Супермодератор
Супермодератор
 
Раздал: 12.57 ГБ
Скачал: 907.51 ГБ
Ратио: 0.017
Сообщения: 4359
Фото: 292
Зарегистрирован: 19 июн 2008, 23:00

  • Похожие торренты
    Ответы
    Просмотры
    Последнее сообщение

Вернуться в Фильмы 2016 (новинки)

Кто сейчас на конференции

Зарегистрированные пользователи: Anatoliy, cactus, fas28, sergey_tr

Ресурс не предоставляет электронные версии произведений, а занимается лишь коллекционированием и каталогизацией ссылок, присылаемых и публикуемых на форуме нашими читателями. Если вы являетесь правообладателем какого-либо представленного материала и не желаете чтобы ссылка на него находилась в нашем каталоге, свяжитесь с нами и мы незамедлительно удалим её. Файлы для обмена на трекере предоставлены пользователями сайта, и администрация не несёт ответственности за их содержание. Просьба не заливать файлы, защищенные авторскими правами, а также файлы нелегального содержания!
cron