Дом, милый ад / Home Sweet Hell (2015) HDRip

Киноновинки, новинки кинопроката, горячие новинки

Модератор: Модераторы видео

  • Статистика раздачи
Размер: 1.46 ГБ   |  Зарегистрирован: 04 май 2015, 12:13   |   .torrent скачан: 39 раз
Сидеров: 285  [ 0 байт/сек ]     Личеров: 6  [ 0 байт/сек ]  
Список файлов : Кто скачал : Раздают : Скачивают : Кто благодарил : История : Не раздающие : Запрашивали сидеров : Внешние трекеры 
  

Дом, милый ад / Home Sweet Hell (2015) HDRip

Сообщение Боцман » 04 май 2015, 12:13

Дом, милый ад / Home Sweet Hell (2015) HDRip

Производство: США
Жанр: Драма, Комедия

Режиссер: Энтони Бёрнс
Продюсер: А.Дж. Бакли, Энтони Бёрнс, Джефф Калотта
Актеры: Кэтрин Хейгл, Патрик Уилсон, Джеймс Белуши, Джордана Брюстер, Кевин МакКидд, Брайс Джонсон, А.Дж. Бакли, Алишия Окс, Эйден Флауэрс, Мэдисон Вульф

Описание фильма:
Соблазнительная и интригующая новая сотрудница компании становится проблемой для бизнесмена, который женат на одержимой женщине, пытающейся контролировать все аспекты его жизни...

Перевод: Профессиональный многоголосый (iTunes)



Дата мировой премьеры: 13 марта 2015
Дата выхода DVD релиза: 14 мая 2015

Продолжительность: 01:37:50
Качество видео: HDRip

Видеокодек: XviD
Битрейт видео: ~1738 Кбит/с
Размер кадра: 720x304
Аудиокодек: AC3 6 ch
Битрейт аудио: 384 Кбит/с
Общее
Полное имя : C:\NNM\Дом, милый ад\Milyj ad 2015 HDRip.avi
Формат : AVI
Формат/Информация : Audio Video Interleave
Размер файла : 1,46 Гбайт
Продолжительность : 1 ч. 37 м.
Общий поток : 2131 Кбит/сек
Программа кодирования : VirtualDubMod 1.5.10.3 | www.virtualdub-fr.org || (build 2550/release)
Библиотека кодирования : VirtualDubMod build 2550/release

Видео
Идентификатор : 0
Формат : MPEG-4 Visual
Профиль формата : Advanced Simple@L5
Параметр BVOP формата : 2
Параметр QPel формата : Нет
Параметр GMC формата : Без точки перехода
Параметр матрицы формата : Default (MPEG)
Режим смешивания : Сжатый битовый поток
Идентификатор кодека : XVID
Идентификатор кодека/Подсказка : XviD
Продолжительность : 1 ч. 37 м.
Битрейт : 1738 Кбит/сек
Ширина : 720 пикселей
Высота : 304 пикселя
Соотношение сторон : 2,35:1
Частота кадров : 23,976 кадра/сек
Цветовое пространство : YUV
Субдискретизация насыщенности : 4:2:0
Битовая глубина : 8 бит
Тип развёртки : Прогрессивная
Метод сжатия : С потерями
Бит/(Пиксели*Кадры) : 0.331
Размер потока : 1,19 Гбайт (82%)
Библиотека кодирования : XviD 73

Аудио
Идентификатор : 1
Формат : AC-3
Формат/Информация : Audio Coding 3
Расширение режима : CM (complete main)
Идентификатор кодека : 2000
Продолжительность : 1 ч. 37 м.
Вид битрейта : Постоянный
Битрейт : 384 Кбит/сек
Каналы : 6 каналов
Расположение каналов : Front: L C R, Side: L R, LFE
Частота : 48,0 КГц
Битовая глубина : 16 бит
Метод сжатия : С потерями
Размер потока : 269 Мбайт (18%)
Выравнивание : Разделение по промежуткам
Продолжительность промежутка : 42 мс. (1,00 видеокадр)
Время предзагрузки промежутка : 500 мс.

Скриншоты:


Время раздачи: Круглосуточно до 10 скачавших
Свою благодарность можете выразить - нажав красную
кнопку.
   
Торрент: Зарегистрирован [04 май 2015, 12:13] Скачать торрент
Скачать торрент
О MediaGet
[ Размер 15.24 КБ / Просмотров 71 ]

Статус:
 
Приватный: Нет (DHT включён)
Размер: 1.46 ГБ (1 564 094 464 байт)
   
Хочешь стать частью команды MZ-Tracker?
Запишись
ТУТ
Аватара пользователя

Супермодератор
Супермодератор
 
Раздал: 12.57 ГБ
Скачал: 907.51 ГБ
Ратио: 0.017
Сообщения: 4359
Фото: 292
Зарегистрирован: 19 июн 2008, 23:00

  • Похожие торренты
    Ответы
    Просмотры
    Последнее сообщение

Вернуться в Фильмы 2016 (новинки)

Кто сейчас на конференции

Зарегистрированные пользователи: Dimkinzx, Dom_777, EAst, Nolimit, prince1104, s19802005

Ресурс не предоставляет электронные версии произведений, а занимается лишь коллекционированием и каталогизацией ссылок, присылаемых и публикуемых на форуме нашими читателями. Если вы являетесь правообладателем какого-либо представленного материала и не желаете чтобы ссылка на него находилась в нашем каталоге, свяжитесь с нами и мы незамедлительно удалим её. Файлы для обмена на трекере предоставлены пользователями сайта, и администрация не несёт ответственности за их содержание. Просьба не заливать файлы, защищенные авторскими правами, а также файлы нелегального содержания!
cron