Ты не ты / You're Not You (2014) HDRip | P

Киноновинки, новинки кинопроката, горячие новинки

Модератор: Модераторы видео

  • Статистика раздачи
Размер: 745.91 МБ   |  Зарегистрирован: 22 апр 2015, 19:15   |   .torrent скачан: 76 раз
Сидеров: 92  [ 0 байт/сек ]     Личеров: 20  [ 0 байт/сек ]  
Список файлов : Кто скачал : Раздают : Скачивают : Кто благодарил : История : Не раздающие : Запрашивали сидеров : Внешние трекеры 
  

Ты не ты / You're Not You (2014) HDRip | P

Сообщение Боцман » 22 апр 2015, 19:15

Информация о фильме
Название: Ты не ты
Оригинальное название: You're Not You
Год выхода: 2014
Жанр: Драма
Режиссер: Джордж С. Волф
В ролях: Хилари Суэнк, Эмми Россум, Джош Дюамель, Стефани Беатриз, Джейсон Риттер, Джулиан МакМэхон, Эли Лартер, Андреа Сэвадж, Джералд Дауни, Майк Дойл

О фильме:
Красивая и талантливая Кэйт всегда была королевой положения. Она умна, у нее крепкая семья и непревзойденный дар игры на фортепиано. Девушка с детства обожает музыку, она стала частью ее души. Как гром среди ясного неба, в устоявшуюся жизнь Кэйт врывается страшное заболевание - прогрессирующий амиотрофический склероз. Супруг очень обеспокоен происходящим, он понимает, что не может оставить жену саму дома, поэтому принимает решение нанять ей сиделку. На кастинге помощниц, выбор Кейт пал на молоденькую студентку Бек. Девушка наивна и энергична, она выглядит полной противоположностью главной героини, которая видит в ней силу и возможность реализовать свои рухнувшие мечты. Она отлично справляется с возложенной миссией и становится хорошей поддержкой больной. Кейт делится с ней мудростью, а Бек – вносит свет и бодрость в ее угасающую жизнь.


Страна: США
Студия: 2S Films, Daryl Prince Productions
Продолжительность: 01:42:21
Перевод: Профессиональное многоголосное - Официальное

Файл
Кодек: XviD
Качество: HDRip
Видео: 624x336 (1.85:1), 24.000 fps, XviD build 73 ~882 kbps avg, 0.18 bit/pixel
Звук: 48 kHz, MPEG Layer 3, 2 ch, ~128.00 kbps avg
Субтитры: Отсутствуют

Семпл
Общее
Полное имя : D:Изготовление рипаTy.ne.ty.2014.P.HDRip.от Шкипер.avi
Формат : AVI
Формат/Информация : Audio Video Interleave
Размер файла : 746 Мбайт
Продолжительность : 1 ч. 42 м.
Общий поток : 1019 Кбит/сек
Программа кодирования : VirtualDubMod 1.5.10.3 | www.virtualdub-fr.org || (build 2550/release)
Библиотека кодирования : VirtualDubMod build 2550/release

Видео
Идентификатор : 0
Формат : MPEG-4 Visual
Профиль формата : Advanced Simple@L5
Параметр BVOP формата : 1
Параметр QPel формата : Нет
Параметр GMC формата : Без точки перехода
Параметр матрицы формата : Default (MPEG)
Идентификатор кодека : XVID
Идентификатор кодека/Подсказка : XviD
Продолжительность : 1 ч. 42 м.
Битрейт : 882 Кбит/сек
Ширина : 624 пикселя
Высота : 336 пикселей
Соотношение сторон : 1,85:1
Частота кадров : 24,000 кадра/сек
Цветовое пространство : YUV
Субдискретизация насыщенности : 4:2:0
Битовая глубина : 8 бит
Тип развёртки : Прогрессивная
Метод сжатия : С потерями
Бит/(Пиксели*Кадры) : 0.175
Размер потока : 645 Мбайт (87%)
Библиотека кодирования : XviD 73

Аудио
Идентификатор : 1
Формат : MPEG Audio
Версия формата : Version 1
Профиль формата : Layer 3
Режим : Joint stereo
Расширение режима : MS Stereo
Идентификатор кодека : 55
Идентификатор кодека/Подсказка : MP3
Продолжительность : 1 ч. 42 м.
Вид битрейта : Постоянный
Битрейт : 128 Кбит/сек
Каналы : 2 канала
Частота : 48,0 КГц
Метод сжатия : С потерями
Размер потока : 93,7 Мбайт (13%)
Выравнивание : Соединение по промежуткам
Продолжительность промежутка : 42 мс. (1,00 видеокадр)
Время предзагрузки промежутка : 504 мс.
Библиотека кодирования : LAME3.99r
Настройки программы : -m j -V 4 -q 2 -lowpass 17 -b 128


Рип от:
   
Торрент: Зарегистрирован [22 апр 2015, 19:15] Скачать торрент
Скачать торрент
О MediaGet
[ Размер 15.12 КБ / Просмотров 36 ]

Статус:
 
Приватный: Нет (DHT включён)
Размер: 745.91 МБ (782 139 392 байт)
   
Хочешь стать частью команды MZ-Tracker?
Запишись
ТУТ
Аватара пользователя

Супермодератор
Супермодератор
 
Раздал: 12.57 ГБ
Скачал: 907.51 ГБ
Ратио: 0.017
Сообщения: 4359
Фото: 292
Зарегистрирован: 19 июн 2008, 23:00

  • Похожие торренты
    Ответы
    Просмотры
    Последнее сообщение

Вернуться в Фильмы 2016 (новинки)

Кто сейчас на конференции

Зарегистрированные пользователи: styk

Ресурс не предоставляет электронные версии произведений, а занимается лишь коллекционированием и каталогизацией ссылок, присылаемых и публикуемых на форуме нашими читателями. Если вы являетесь правообладателем какого-либо представленного материала и не желаете чтобы ссылка на него находилась в нашем каталоге, свяжитесь с нами и мы незамедлительно удалим её. Файлы для обмена на трекере предоставлены пользователями сайта, и администрация не несёт ответственности за их содержание. Просьба не заливать файлы, защищенные авторскими правами, а также файлы нелегального содержания!
cron