Люпен III / Lupin III (2014) HDRip | L2

Киноновинки, новинки кинопроката, горячие новинки

Модератор: Модераторы видео

  • Статистика раздачи
Размер: 1.45 ГБ   |  Зарегистрирован: 12 мар 2015, 18:50   |   .torrent скачан: 977 раз
Сидеров: 590  [ 0 байт/сек ]     Личеров: 20  [ 0 байт/сек ]  
Список файлов : Кто скачал : Раздают : Скачивают : Кто благодарил : История : Не раздающие : Запрашивали сидеров : Внешние трекеры 
  

Люпен III / Lupin III (2014) HDRip | L2

Сообщение Боцман » 12 мар 2015, 18:50

Информация о фильме
Название: Люпен III
Оригинальное название: Lupin III
Год выпуска: 2014
Жанр: боевик, Комедия, приключения
Режиссер: Рюхэй Китамура
В ролях: Таданобу Асано, Ейяинг Рхатха Пхонгам, Ник Тейт, Витхая Пансрингарм, Джеффри Джулиано, Меиса Куроки, Сюн Огури, Джерри Янь, Сахайак Бунсанакит, Нирут Сиричанья

О фильме: История о гениальном воре Люпине Третьем, высылающем визитные карточки своим будущим жертвам.



Производство: Япония
Продолжительность: 02:12:53
Озвучивание: Любительское (двухголосое) [DeadSno & den904]

Файл
Формат: AVI (XviD)
Качество: HDRip [Рип с BDRip 720p]
Видео: 1363 kb/s, 720x304
Аудио: AC3, 192 kb/s (2 ch)







Format : AVI
Format/Info : Audio Video Interleave
File size : 1.45 GiB
Duration : 2h 12mn
Overall bit rate : 1 565 Kbps
Writing application : VirtualDubMod 1.5.10.3 | www.virtualdub-fr.org || (build 2550/release)
Writing library : VirtualDubMod build 2550/release

Video
ID : 0
Format : MPEG-4 Visual
Format profile : Advanced Simple@L5
Format settings, BVOP : 1
Format settings, QPel : No
Format settings, GMC : No warppoints
Format settings, Matrix : Custom
Codec ID : XVID
Codec ID/Hint : XviD
Duration : 2h 12mn
Bit rate : 1 363 Kbps
Width : 720 pixels
Height : 304 pixels
Display aspect ratio : 2.35:1
Frame rate : 23.976 fps
Color space : YUV
Chroma subsampling : 4:2:0
Bit depth : 8 bits
Scan type : Progressive
Compression mode : Lossy
Bits/(Pixel*Frame) : 0.260
Stream size : 1.27 GiB (87%)
Writing library : XviD 73

Audio
ID : 1
Format : AC-3
Format/Info : Audio Coding 3
Mode extension : CM (complete main)
Format settings, Endianness : Big
Codec ID : 2000
Duration : 2h 12mn
Bit rate mode : Constant
Bit rate : 192 Kbps
Channel(s) : 2 channels
Channel positions : Front: L R
Sampling rate : 48.0 KHz
Bit depth : 16 bits
Compression mode : Lossy
Delay relative to video : 392ms
Stream size : 182 MiB (12%)
Alignment : Split accross interleaves
Interleave, duration : 42 ms (1.00 video frame)
Interleave, preload duration : 500 ms
   
Торрент: Зарегистрирован [12 мар 2015, 18:50] Скачать торрент
Скачать торрент
О MediaGet
[ Размер 15.17 КБ / Просмотров 37 ]

Статус:
 
Приватный: Нет (DHT включён)
Размер: 1.45 ГБ (1 559 621 632 байт)
   
Хочешь стать частью команды MZ-Tracker?
Запишись
ТУТ
Аватара пользователя

Супермодератор
Супермодератор
 
Раздал: 12.57 ГБ
Скачал: 907.51 ГБ
Ратио: 0.017
Сообщения: 4359
Фото: 292
Зарегистрирован: 19 июн 2008, 23:00

  • Похожие торренты
    Ответы
    Просмотры
    Последнее сообщение

Вернуться в Фильмы 2016 (новинки)

Кто сейчас на конференции

Зарегистрированные пользователи: sergey_tr, ЗУРБАГАН

Ресурс не предоставляет электронные версии произведений, а занимается лишь коллекционированием и каталогизацией ссылок, присылаемых и публикуемых на форуме нашими читателями. Если вы являетесь правообладателем какого-либо представленного материала и не желаете чтобы ссылка на него находилась в нашем каталоге, свяжитесь с нами и мы незамедлительно удалим её. Файлы для обмена на трекере предоставлены пользователями сайта, и администрация не несёт ответственности за их содержание. Просьба не заливать файлы, защищенные авторскими правами, а также файлы нелегального содержания!
cron