Север ада / Home Sweet Hell (Энтони Бёрнс / Anthony Burns) [2015, США, драма, комедия, WEB-DLRip] VO (Lord32x)

Киноновинки, новинки кинопроката, горячие новинки

Модератор: Модераторы видео

  • Статистика раздачи
Размер: 751.58 МБ   |  Зарегистрирован: 14 фев 2015, 16:16   |   .torrent скачан: 8 раз
Сидеров: 18  [ 0 байт/сек ]     Личеров: 0  [ 0 байт/сек ]  
Список файлов : Кто скачал : Раздают : Скачивают : Кто благодарил : История : Не раздающие : Запрашивали сидеров : Внешние трекеры 
  

Север ада / Home Sweet Hell (Энтони Бёрнс / Anthony Burns) [2015, США, драма, комедия, WEB-DLRip] VO (Lord32x)

Сообщение Фаромир брат » 14 фев 2015, 16:16

Север ада / Home Sweet Hell

Страна: США
Жанр: драма, Комедия
Год выпуска: 2015
Продолжительность: 01:37:51

Перевод: Одноголосый закадровый Lord32x
Cубтитры: нет
Режиссер: Энтони Бёрнс / Anthony Burns

В ролях: Кэтрин Хейгл, Патрик Уилсон, Джеймс Белуши, Джордана Брюстер, Кевин МакКидд, Брайс Джонсон, А.Дж. Бакли, Алишия Окс, Эйден Флауэрс, Мэдисон Вульф

Описание: Соблазнительная и интригующая новая сотрудница компании становится проблемой для бизнесмена, который женат на одержимой женщине, пытающейся контролировать все аспекты его жизни.

Сэмпл: http://multi-up.com/1032659

Качество видео: WEB-DLRip
Формат видео: AVI

Видео: 688x288 (2.39:1), 23.976 fps, XviD build 73 ~936 kbps avg, 0.20 bit/pixel
Аудио: 48 kHz, MPEG Layer 3, 2 ch, ~128.00 kbps avg
Формат : AVI
Формат/Информация : Audio Video Interleave
Размер файла : 752 Мбайт
Продолжительность : 1 ч. 37 м.
Общий поток : 1074 Кбит/сек
Программа кодирования : VirtualDubMod 1.5.10.3 | http://www.virtualdub-fr.org || (build 2550/release)
Библиотека кодирования : VirtualDubMod build 2550/release

Видео
Идентификатор : 0
Формат : MPEG-4 Visual
Профиль формата : Advanced Simple@L5
Параметр BVOP формата : 1
Параметр QPel формата : Нет
Параметр GMC формата : Без точки перехода
Параметр матрицы формата : Выборочная
Идентификатор кодека : XVID
Идентификатор кодека/Подсказка : XviD
Продолжительность : 1 ч. 37 м.
Битрейт : 936 Кбит/сек
Ширина : 688 пикселей
Высота : 288 пикселей
Соотношение сторон : 2,40:1
Частота кадров : 23,976 кадра/сек
Цветовое пространство : YUV
Субдискретизация насыщенности : 4:2:0
Битовая глубина : 8 бит
Тип развёртки : Прогрессивная
Метод сжатия : С потерями
Бит/(Пиксели*Кадры) : 0.197
Размер потока : 655 Мбайт (87%)
Библиотека кодирования : XviD 73

Аудио
Идентификатор : 1
Формат : MPEG Audio
Версия формата : Version 1
Профиль формата : Layer 3
Идентификатор кодека : 55
Идентификатор кодека/Подсказка : MP3
Продолжительность : 1 ч. 37 м.
Вид битрейта : Постоянный
Битрейт : 128 Кбит/сек
Каналы : 2 канала
Частота : 48,0 КГц
Метод сжатия : С потерями
Размер потока : 89,6 Мбайт (12%)
Выравнивание : Соединение по промежуткам
Продолжительность промежутка : 42 мс. (1,00 видеокадр)
Время предзагрузки промежутка : 504 мс.
Библиотека кодирования : LAME3.99r
Настройки программы : -m s -V 4 -q 2 -lowpass 17 -b 128
   
Торрент: Зарегистрирован [14 фев 2015, 16:16] Скачать торрент
Скачать торрент
О MediaGet
[ Размер 15.18 КБ / Просмотров 29 ]

Статус:
 
Приватный: Нет (DHT включён)
Размер: 751.58 МБ (788 088 832 байт)
   
Аватара пользователя

Супермодератор
Супермодератор
 
Раздал: 24.3 ТБ
Скачал: 1.7 ТБ
Ратио: 21.015
Сообщения: 7751
Фото: 123
Зарегистрирован: 26 ноя 2012, 17:20
Medals: 2
1000 раздач! (1) Меценат №2 (1)

  • Похожие торренты
    Ответы
    Просмотры
    Последнее сообщение

Вернуться в Фильмы 2016 (новинки)

Кто сейчас на конференции

Зарегистрированные пользователи: styk

Ресурс не предоставляет электронные версии произведений, а занимается лишь коллекционированием и каталогизацией ссылок, присылаемых и публикуемых на форуме нашими читателями. Если вы являетесь правообладателем какого-либо представленного материала и не желаете чтобы ссылка на него находилась в нашем каталоге, свяжитесь с нами и мы незамедлительно удалим её. Файлы для обмена на трекере предоставлены пользователями сайта, и администрация не несёт ответственности за их содержание. Просьба не заливать файлы, защищенные авторскими правами, а также файлы нелегального содержания!
cron