Швейные и вязальные машины и оверлоки PFAFF Janome Brother Silver Reed продажа

Ангар 10 / Hangar 10 (Дэниэл Симпсон) (2014) WEB-DLRip | L1

Киноновинки, новинки кинопроката, горячие новинки

Модератор: Модераторы видео

  • Статистика раздачи
Размер: 1.49 ГБ   |  Зарегистрирован: 31 янв 2015, 17:41   |   .torrent скачан: 2012 раз
Сидеров: 1321  [ 0 байт/сек ]     Личеров: 63  [ 0 байт/сек ]  
Список файлов : Кто скачал : Раздают : Скачивают : Кто благодарил : История : Не раздающие : Запрашивали сидеров : Внешние трекеры 
  

Ангар 10 / Hangar 10 (Дэниэл Симпсон) (2014) WEB-DLRip | L1

Сообщение Strelok77795 » 31 янв 2015, 17:42

Информация о фильме
Название: Ангар 10
Оригинальное название: Hangar 10
Год выхода: 2014
Жанр: Ужасы, фантастика, триллер
Режиссер: Дэниэл Симпсон
В ролях: Роберт Кертис, Эбби Солт, Дэнни Шейлер

О фильме: Через 33 года после печально известного инцидента с НЛО в Рендлшем Форест, трое энтузиастов отправляются на поиски золота в ту же область…



Выпущено: Великобритания
Продолжительность: 01:27:35
Озвучивание: Любительское (одноголосое) [ХиХиДок], перевод [lgt]

Файл
Формат: AVI (XviD)
Качество: WEB-DLRip
Видео: 1624 kb/s, 720x384
Аудио: Russian / English: AC3, 384 kb/s (6 ch)

General
Unique ID : 212497316763373443478726539703843794831 (0x9FDD7E9A8B3A004C80BFF971BB6BAF8F)
Complete name : Hangar.10.2014.WEB-DLRip.avi
Format : Matroska
Format version : Version 2
File size : 1.49 GiB
Duration : 1h 27mn
Overall bit rate : 2 441 Kbps
Encoded date : UTC 2015-01-22 21:06:14
Writing application : mkvmerge v5.0.1 ('Es ist Sommer') built on Oct 24 2011 19:45:06
Writing library : libebml v1.2.2 + libmatroska v1.3.0

Video
ID : 1
Format : MPEG-4 Visual
Format profile : Advanced Simple@L5
Format settings, BVOP : Yes
Format settings, QPel : No
Format settings, GMC : No warppoints
Format settings, Matrix : Default (H.263)
Codec ID : XVID
Codec ID/Hint : XviD
Duration : 1h 27mn
Bit rate : 1 624 Kbps
Width : 720 pixels
Height : 384 pixels
Display aspect ratio : 1.85:1
Frame rate : 23.976 fps
Color space : YUV
Chroma subsampling : 4:2:0
Bit depth : 8 bits
Scan type : Progressive
Compression mode : Lossy
Bits/(Pixel*Frame) : 0.245
Stream size : 1 018 MiB (67%)
Writing library : XviD 64
Default : Yes
Forced : No

Audio #1
ID : 2
Format : AC-3
Format/Info : Audio Coding 3
Mode extension : CM (complete main)
Format settings, Endianness : Big
Muxing mode : Header stripping
Codec ID : A_AC3
Duration : 1h 27mn
Bit rate mode : Constant
Bit rate : 384 Kbps
Channel(s) : 6 channels
Channel positions : Front: L C R, Side: L R, LFE
Sampling rate : 48.0 KHz
Bit depth : 16 bits
Compression mode : Lossy
Stream size : 241 MiB (16%)
Default : Yes
Forced : No

Audio #2
ID : 3
Format : AC-3
Format/Info : Audio Coding 3
Mode extension : CM (complete main)
Format settings, Endianness : Big
Muxing mode : Header stripping
Codec ID : A_AC3
Duration : 1h 27mn
Bit rate mode : Constant
Bit rate : 384 Kbps
Channel(s) : 6 channels
Channel positions : Front: L C R, Side: L R, LFE
Sampling rate : 48.0 KHz
Bit depth : 16 bits
Compression mode : Lossy
Stream size : 241 MiB (16%)
Default : No
Forced : No


Релиз:
   
Торрент: Зарегистрирован [31 янв 2015, 17:41] Скачать торрент
Скачать торрент
О MediaGet
[ Размер 15.48 КБ / Просмотров 55 ]

Статус:
 
Приватный: Нет (DHT включён)
Размер: 1.49 ГБ (1 603 722 497 байт)
   
Аватара пользователя

Модератор видео
Модератор видео
 
Раздал: 46.12 ТБ
Скачал: 39.63 ГБ
Ратио: 1223.484
Сообщения: 3495
Фото: 17
Зарегистрирован: 22 сен 2012, 23:13
Medals: 2
1000 раздач! (1) 1 место (1)

  • Похожие торренты
    Ответы
    Просмотры
    Последнее сообщение

Re: Ангар 10 / Hangar 10 (Дэниэл Симпсон) (2014) WEB-DLRip | L1

Сообщение Dryu » 02 фев 2015, 20:42

спасибо
Аватара пользователя
Пир-флудер
Пир-флудер
 
Раздал: 3.64 ТБ
Скачал: 1.32 ТБ
Ратио: 2.797
Сообщения: 625
Зарегистрирован: 03 июл 2009, 15:38
Откуда: Анапа-Сити
  • Личное сообщение
  • ICQ


Вернуться в Фильмы 2016 (новинки)

Кто сейчас на конференции

Зарегистрированные пользователи: sergey_tr, ЗУРБАГАН

Ресурс не предоставляет электронные версии произведений, а занимается лишь коллекционированием и каталогизацией ссылок, присылаемых и публикуемых на форуме нашими читателями. Если вы являетесь правообладателем какого-либо представленного материала и не желаете чтобы ссылка на него находилась в нашем каталоге, свяжитесь с нами и мы незамедлительно удалим её. Файлы для обмена на трекере предоставлены пользователями сайта, и администрация не несёт ответственности за их содержание. Просьба не заливать файлы, защищенные авторскими правами, а также файлы нелегального содержания!
cron